Статистика раздачи
Размер:  155 MB   |    Зарегистрирован:  2 года 4 месяца   |    Скачан:  0 раз
DL-List: Нет

Полного источника не было: Никогда

 
     
 
 
 

MAGNAT ®

Пол:
Мужской
Стаж:
3 года 4 месяца
Сообщений:
14845

Откуда: Москва

Artyomov - Gentle Emanation (1991,rev.2008) Symphony in 28 continuous episodes, Tristia II (1998,rev.2011), Fantasy for piano and orchestra in 11 continuous episodes
Жанр: Classical,Contemporary
Страна-производитель диска: Austria
Год издания: 2016
Издатель (лейбл): Divine art
Номер по каталогу: dda25144
Дата записи: 2010,2011
Аудиокодек: OGG
Тип рипа: tracks+.cue
Битрейт аудио: 300 kbps
Продолжительность: 01:11:25
Источник: CD
Треклист:
Vyacheslav Artyomov - Gentle Emanation, Tristia II:
01-28. Gentle Emanation
29-39. Tristia II
Исполнители:
Russian National Orchestra, Teodor Currentzis conductor 1-28, Vladimir Ponkin conductor 29-39, Philipp Kopachevsky piano, Mikhail Philippov reader

Содержание индексной карты (.CUE)

[pre]REM Cue file written by K3b 2.0.3
PERFORMER "Russian National Orchestra"
TITLE "Artyomov Gentle Emanation"
FILE "Russian National Orchestra - Artyomov Gentle Emanation.ogg" OGG
TRACK 01 AUDIO
PERFORMER "Russian National Orchestra"
TITLE "Symphony: Gentle Emanation - 1"
INDEX 01 00:00:00
TRACK 02 AUDIO
PERFORMER "Russian National Orchestra"
TITLE "Symphony: Gentle Emanation - 2"
INDEX 01 03:28:17
TRACK 03 AUDIO
PERFORMER "Russian National Orchestra"
TITLE "Symphony: Gentle Emanation - 3"
INDEX 01 04:15:06
TRACK 04 AUDIO
PERFORMER "Russian National Orchestra"
TITLE "Symphony: Gentle Emanation - 4"
INDEX 01 06:11:61
TRACK 05 AUDIO
PERFORMER "Russian National Orchestra"
TITLE "Symphony: Gentle Emanation - 5"
INDEX 01 07:40:09
TRACK 06 AUDIO
PERFORMER "Russian National Orchestra"
TITLE "Symphony: Gentle Emanation - 6"
INDEX 01 08:50:34
TRACK 07 AUDIO
PERFORMER "Russian National Orchestra"
TITLE "Symphony: Gentle Emanation - 7"
INDEX 01 11:18:28
TRACK 08 AUDIO
PERFORMER "Russian National Orchestra"
TITLE "Symphony: Gentle Emanation - 8"
INDEX 01 12:57:69
TRACK 09 AUDIO
PERFORMER "Russian National Orchestra"
TITLE "Symphony: Gentle Emanation - 9"
INDEX 01 14:57:28
TRACK 10 AUDIO
PERFORMER "Russian National Orchestra"
TITLE "Symphony: Gentle Emanation - 10"
INDEX 01 16:51:64
TRACK 11 AUDIO
PERFORMER "Russian National Orchestra"
TITLE "Symphony: Gentle Emanation - 11"
INDEX 01 17:39:43
TRACK 12 AUDIO
PERFORMER "Russian National Orchestra"
TITLE "Symphony: Gentle Emanation - 12"
INDEX 01 18:55:35
TRACK 13 AUDIO
PERFORMER "Russian National Orchestra"
TITLE "Symphony: Gentle Emanation - 13"
INDEX 01 20:02:35
TRACK 14 AUDIO
PERFORMER "Russian National Orchestra"
TITLE "Symphony: Gentle Emanation - 14"
INDEX 01 21:41:73
TRACK 15 AUDIO
PERFORMER "Russian National Orchestra"
TITLE "Symphony: Gentle Emanation - 15"
INDEX 01 22:33:27
TRACK 16 AUDIO
PERFORMER "Russian National Orchestra"
TITLE "Symphony: Gentle Emanation - 16"
INDEX 01 23:07:05
TRACK 17 AUDIO
PERFORMER "Russian National Orchestra"
TITLE "Symphony: Gentle Emanation - 17"
INDEX 01 24:28:60
TRACK 18 AUDIO
PERFORMER "Russian National Orchestra"
TITLE "Symphony: Gentle Emanation - 18"
INDEX 01 25:52:04
TRACK 19 AUDIO
PERFORMER "Russian National Orchestra"
TITLE "Symphony: Gentle Emanation - 19"
INDEX 01 29:09:34
TRACK 20 AUDIO
PERFORMER "Russian National Orchestra"
TITLE "Symphony: Gentle Emanation - 20"
INDEX 01 29:51:34
TRACK 21 AUDIO
PERFORMER "Russian National Orchestra"
TITLE "Symphony: Gentle Emanation - 21"
INDEX 01 30:26:23
TRACK 22 AUDIO
PERFORMER "Russian National Orchestra"
TITLE "Symphony: Gentle Emanation - 22"
INDEX 01 30:55:62
TRACK 23 AUDIO
PERFORMER "Russian National Orchestra"
TITLE "Symphony: Gentle Emanation - 23"
INDEX 01 31:23:27
TRACK 24 AUDIO
PERFORMER "Russian National Orchestra"
TITLE "Symphony: Gentle Emanation - 24"
INDEX 01 31:54:22
TRACK 25 AUDIO
PERFORMER "Russian National Orchestra"
TITLE "Symphony: Gentle Emanation - 25"
INDEX 01 32:26:19
TRACK 26 AUDIO
PERFORMER "Russian National Orchestra"
TITLE "Symphony: Gentle Emanation - 26"
INDEX 01 33:06:36
TRACK 27 AUDIO
PERFORMER "Russian National Orchestra"
TITLE "Symphony: Gentle Emanation - 27"
INDEX 01 35:20:54
TRACK 28 AUDIO
PERFORMER "Russian National Orchestra"
TITLE "Symphony: Gentle Emanation - 28"
REM Cue file written by K3b 2.0.3
PERFORMER "Russian National Orchestra"
TITLE "Artyomov Gentle Emanation"
FILE "Russian National Orchestra - Artyomov Gentle Emanation.ogg" OGG
TRACK 01 AUDIO
PERFORMER "Russian National Orchestra"
TITLE "Tristia II - 1"
INDEX 01 00:00:00
TRACK 02 AUDIO
PERFORMER "Russian National Orchestra"
TITLE "Tristia II - 2"
INDEX 01 06:49:21
TRACK 03 AUDIO
PERFORMER "Russian National Orchestra"
TITLE "Tristia II - 3"
INDEX 01 10:25:34
TRACK 04 AUDIO
PERFORMER "Russian National Orchestra"
TITLE "Tristia II - 4"
INDEX 01 12:21:56
TRACK 05 AUDIO
PERFORMER "Russian National Orchestra"
TITLE "Tristia II - 5"
INDEX 01 15:02:53
TRACK 06 AUDIO
PERFORMER "Russian National Orchestra"
TITLE "Tristia II - 6"
INDEX 01 16:50:46
TRACK 07 AUDIO
PERFORMER "Russian National Orchestra"
TITLE "Tristia II - 7"
INDEX 01 17:53:71
TRACK 08 AUDIO
PERFORMER "Russian National Orchestra"
TITLE "Tristia II - 8"
INDEX 01 20:02:32
TRACK 09 AUDIO
PERFORMER "Russian National Orchestra"
TITLE "Tristia II - 9"
INDEX 01 22:48:50
TRACK 10 AUDIO
PERFORMER "Russian National Orchestra"
TITLE "Tristia II - 10"
INDEX 01 25:41:32
TRACK 11 AUDIO
PERFORMER "Russian National Orchestra"
TITLE "Tristia II - 11"
INDEX 01 27:49:07
[filmix.space].t14137.torrent 
Торрент: Зарегистрирован [ 2020-03-31 21:05 ] · 20B9884BE3A0A33ED6EF4A1197927FCAD3705AB5

Скачать .torrent

Скачать

25 KB

Статус: проверено
Скачан: 0 раз
Размер: 155 MB  ·  Тип торрента
terms.php
Профиль [ЛС]
Показать сообщения:    

Текущее время: 07-Авг 22:22

Часовой пояс: UTC + 3



Вы не можете начинать темы
Вы не можете отвечать на сообщения
Вы не можете редактировать свои сообщения
Вы не можете удалять свои сообщения
Вы не можете голосовать в опросах
Вы не можете прикреплять файлы к сообщениям
Вы можете скачивать файлы