Статистика раздачи
Скачал: [ 1 ]
Размер:  321 MB   |    Зарегистрирован:  2 года 4 месяца   |    Скачан:  1 раз

Полного источника не было: 1 год

 
     
 
 
 

MAGNAT ®

Пол:
Мужской
Стаж:
3 года 4 месяца
Сообщений:
14845

Откуда: Москва

Barbara Benary ‎- Sun On Snow
Жанр: Gamelan, Chamber Music, Classical
Страна-производитель диска: US
Год издания диска: 2006
Издатель (лейбл): New World Records
Номер по каталогу: 80646-2
Аудиокодек: FLAC
Тип рипа: image+.cue
Битрейт аудио: lossless
Продолжительность: 01:01:07
Источник: скачано с
сайт-источник/ник/другое: локальная сеть
Наличие сканов в содержимом раздачи: да
Треклист:
01. Aural Shoehorning - Plainsong
02. Aural Shoehorning - Northwest
03. Aural Shoehorning - Smudging
04. Aural Shoehorning - Amtrak
05. Aural Shoehorning - Tujuh
06. Sun on Snow I
07. Sun on Snow II
08. Sun on Snow III
09. Sun on Snow IV
10. Sun on Snow V
11. Barang I
12. Barang II
13. Downtown Steel I
14. Downtown Steel II
Исполнители:
Members Of DownTown Ensemble, Gamelan Son Of Lion

Лог создания рипа

Exact Audio Copy V1.0 beta 3 from 29. August 2011
EAC extraction logfile from 25. July 2013, 15:09
Barbara Benary / Sun On Snow
Used drive : QSI CDRW/DVD SBW242U Adapter: 1 ID: 0
Read mode : Secure
Utilize accurate stream : Yes
Defeat audio cache : Yes
Make use of C2 pointers : No
Read offset correction : 6
Overread into Lead-In and Lead-Out : No
Fill up missing offset samples with silence : Yes
Delete leading and trailing silent blocks : No
Null samples used in CRC calculations : Yes
Used interface : Native Win32 interface for Win NT & 2000
Used output format : User Defined Encoder
Selected bitrate : 768 kBit/s
Quality : High
Add ID3 tag : No
Command line compressor : C:\Program Files\Exact Audio Copy\FLAC\FLAC.EXE
Additional command line options : -6 -V -T "ARTIST=%artist%" -T "TITLE=%title%" -T "ALBUM=%albumtitle%" -T "DATE=%year%" -T "TRACKNUMBER=%tracknr%" -T "GENRE=%genre%" -T "COMMENT=%comment%" -T "BAND=%albuminterpret%" -T "ALBUMARTIST=%albuminterpret%" -T "COMPOSER=%composer%" %haslyrics%--tag-from-file=LYRICS="%lyricsfile%"%haslyrics% -T "DISCNUMBER=%cdnumber%" -T "TOTALDISCS=%totalcds%" -T "TOTALTRACKS=%numtracks%" %hascover%--picture="%coverfile%"%hascover% %source% -o %dest%
TOC of the extracted CD
Track | Start | Length | Start sector | End sector
---------------------------------------------------------
1 | 0:00.00 | 7:33.08 | 0 | 33982
2 | 7:33.08 | 3:30.71 | 33983 | 49803
3 | 11:04.04 | 5:37.16 | 49804 | 75094
4 | 16:41.20 | 5:21.47 | 75095 | 99216
5 | 22:02.67 | 3:13.10 | 99217 | 113701
6 | 25:16.02 | 4:15.07 | 113702 | 132833
7 | 29:31.09 | 2:30.31 | 132834 | 144114
8 | 32:01.40 | 4:28.61 | 144115 | 164275
9 | 36:30.26 | 1:55.52 | 164276 | 172952
10 | 38:26.03 | 1:25.69 | 172953 | 179396
11 | 39:51.72 | 4:04.38 | 179397 | 197734
12 | 43:56.35 | 5:28.52 | 197735 | 222386
13 | 49:25.12 | 6:48.01 | 222387 | 252987
14 | 56:13.13 | 4:54.16 | 252988 | 275053
Range status and errors
Selected range
Filename G:\Barbara Benary - Sun On Snow\Barbara Benary - Sun On Snow.wav
Peak level 99.9 %
Extraction speed 2.9 X
Range quality 100.0 %
Test CRC 79DA99A1
Copy CRC 79DA99A1
Copy OK
No errors occurred
AccurateRip summary
Track 1 not present in database
Track 2 not present in database
Track 3 not present in database
Track 4 not present in database
Track 5 not present in database
Track 6 not present in database
Track 7 not present in database
Track 8 not present in database
Track 9 not present in database
Track 10 not present in database
Track 11 not present in database
Track 12 not present in database
Track 13 not present in database
Track 14 not present in database
None of the tracks are present in the AccurateRip database
End of status report
==== Log checksum F7CFA91263B1B0BD66ED97DABA58F0D31D3A47A74D8194DF428C9F8F106B1C2A ====

Содержание индексной карты (.CUE)

REM GENRE Classical
REM DATE 2006
REM DISCID C90E530E
REM COMMENT "ExactAudioCopy v1.0b3"
PERFORMER "Barbara Benary"
TITLE "Sun On Snow"
FILE "Barbara Benary - Sun On Snow.flac" WAVE
TRACK 01 AUDIO
TITLE "Aural Shoehorning - Plainsong"
PERFORMER "Barbara Benary"
INDEX 01 00:00:00
TRACK 02 AUDIO
TITLE "Aural Shoehorning - Northwest"
PERFORMER "Barbara Benary"
INDEX 01 07:33:08
TRACK 03 AUDIO
TITLE "Aural Shoehorning - Smudging"
PERFORMER "Barbara Benary"
INDEX 01 11:04:04
TRACK 04 AUDIO
TITLE "Aural Shoehorning - Amtrak"
PERFORMER "Barbara Benary"
INDEX 01 16:41:20
TRACK 05 AUDIO
TITLE "Aural Shoehorning - Tujuh"
PERFORMER "Barbara Benary"
INDEX 01 22:02:67
TRACK 06 AUDIO
TITLE "Sun on Snow I"
PERFORMER "Barbara Benary"
INDEX 00 25:10:69
INDEX 01 25:16:02
TRACK 07 AUDIO
TITLE "Sun on Snow II"
PERFORMER "Barbara Benary"
INDEX 01 29:31:09
TRACK 08 AUDIO
TITLE "Sun on Snow III"
PERFORMER "Barbara Benary"
INDEX 01 32:01:40
TRACK 09 AUDIO
TITLE "Sun on Snow IV"
PERFORMER "Barbara Benary"
INDEX 01 36:30:26
TRACK 10 AUDIO
TITLE "Sun on Snow V"
PERFORMER "Barbara Benary"
INDEX 01 38:26:03
TRACK 11 AUDIO
TITLE "Barang I"
PERFORMER "Barbara Benary"
INDEX 00 39:42:02
INDEX 01 39:51:72
TRACK 12 AUDIO
TITLE "Barang II"
PERFORMER "Barbara Benary"
INDEX 00 43:52:16
INDEX 01 43:56:35
TRACK 13 AUDIO
TITLE "Downtown Steel I"
PERFORMER "Barbara Benary"
INDEX 00 49:22:17
INDEX 01 49:25:12
TRACK 14 AUDIO
TITLE "Downtown Steel II"
PERFORMER "Barbara Benary"
INDEX 00 56:11:35
INDEX 01 56:13:13
[filmix.space].t14101.torrent 
Торрент: Зарегистрирован [ 2020-03-31 20:29 ] · AC83FEC35CA305B6C5D6433614C6B1923D001DE5

Скачать .torrent

Скачать

14 KB

Статус: проверено
Скачан: 1 раз
Размер: 321 MB  ·  Тип торрента
terms.php
Профиль [ЛС]
Показать сообщения:    

Текущее время: 07-Авг 21:38

Часовой пояс: UTC + 3



Вы не можете начинать темы
Вы не можете отвечать на сообщения
Вы не можете редактировать свои сообщения
Вы не можете удалять свои сообщения
Вы не можете голосовать в опросах
Вы не можете прикреплять файлы к сообщениям
Вы можете скачивать файлы