Статистика раздачи
Размер:  113 MB   |    Зарегистрирован:  2 года 4 месяца   |    Скачан:  0 раз
DL-List: Нет

Полного источника не было: Никогда

 
     
 
 
 

MAGNAT ®

Пол:
Мужской
Стаж:
3 года 4 месяца
Сообщений:
14845

Откуда: Москва

Artyomov - On the Threshold of a Bright World (1990,rev.2002) Symphony in 18 continuous episodes, Ave Atque Vale(1997) for solo percussion and orchestra in 9 continuous episodes; Ave, Crux Alba (1994,rev.2012)hymn of the Order of St. John, Malta
Жанр: Classical,Contemporary
Страна-производитель диска: Austria
Год издания: 2016
Издатель (лейбл): Divine art
Номер по каталогу: dda25143
Дата записи: 2013
Аудиокодек: OGG
Тип рипа: tracks+.cue
Битрейт аудио: 300 kbps
Продолжительность: 00:51:40
Источник: CD
Треклист:
01-18. On the Threshold of a Bright World.
19-27. Ave Atque Vale
28. Ave, Crux Alba
Исполнители:
Vyacheslav Artyomov.
National Philharmonic Orchestra of Russia, Vladimir Ashkenazy conductor
Rostislav Sharayevsky percussion
Helikon Theatre Choir

Содержание индексной карты (.CUE)

REM Cue file written by K3b 2.0.3
PERFORMER "National Philharmonic of Russia, V. Ashkenazy"
TITLE "Artyomov Threshhold of a Bright World"
FILE "National Philharmonic of Russia, V. Ashkenazy - Artyomov Threshhold of a Bright World.ogg" OGG
TRACK 01 AUDIO
PERFORMER "National Philharmonic of Russia, V. Ashkenazy"
TITLE "Artyomov-THreshhold-Symphony101"
INDEX 01 00:00:00
TRACK 02 AUDIO
PERFORMER "National Philharmonic of Russia, V. Ashkenazy"
TITLE "Artyomov-THreshhold-Symphony102"
INDEX 01 01:57:21
TRACK 03 AUDIO
PERFORMER "National Philharmonic of Russia, V. Ashkenazy"
TITLE "Artyomov-THreshhold-Symphony103"
INDEX 01 04:31:28
TRACK 04 AUDIO
PERFORMER "National Philharmonic of Russia, V. Ashkenazy"
TITLE "Artyomov-THreshhold-Symphony104"
INDEX 01 06:27:44
TRACK 05 AUDIO
PERFORMER "National Philharmonic of Russia, V. Ashkenazy"
TITLE "Artyomov-THreshhold-Symphony105"
INDEX 01 08:27:25
TRACK 06 AUDIO
PERFORMER "National Philharmonic of Russia, V. Ashkenazy"
TITLE "Artyomov-THreshhold-Symphony106"
INDEX 01 10:48:21
TRACK 07 AUDIO
PERFORMER "National Philharmonic of Russia, V. Ashkenazy"
TITLE "Artyomov-THreshhold-Symphony107"
INDEX 01 12:16:33
TRACK 08 AUDIO
PERFORMER "National Philharmonic of Russia, V. Ashkenazy"
TITLE "Artyomov-THreshhold-Symphony108"
INDEX 01 15:01:04
TRACK 09 AUDIO
PERFORMER "National Philharmonic of Russia, V. Ashkenazy"
TITLE "Artyomov-THreshhold-Symphony109"
INDEX 01 17:27:36
TRACK 10 AUDIO
PERFORMER "National Philharmonic of Russia, V. Ashkenazy"
TITLE "Artyomov-THreshhold-Symphony110"
INDEX 01 18:53:66
TRACK 11 AUDIO
PERFORMER "National Philharmonic of Russia, V. Ashkenazy"
TITLE "Artyomov-THreshhold-Symphony111"
INDEX 01 20:28:33
TRACK 12 AUDIO
PERFORMER "National Philharmonic of Russia, V. Ashkenazy"
TITLE "Artyomov-THreshhold-Symphony112"
INDEX 01 22:23:10
TRACK 13 AUDIO
PERFORMER "National Philharmonic of Russia, V. Ashkenazy"
TITLE "Artyomov-THreshhold-Symphony113"
INDEX 01 25:32:10
TRACK 14 AUDIO
PERFORMER "National Philharmonic of Russia, V. Ashkenazy"
TITLE "Artyomov-THreshhold-Symphony114"
INDEX 01 27:30:05
TRACK 15 AUDIO
PERFORMER "National Philharmonic of Russia, V. Ashkenazy"
TITLE "Artyomov-THreshhold-Symphony115"
INDEX 01 28:29:40
TRACK 16 AUDIO
PERFORMER "National Philharmonic of Russia, V. Ashkenazy"
TITLE "Artyomov-THreshhold-Symphony116"
INDEX 01 30:13:54
TRACK 17 AUDIO
PERFORMER "National Philharmonic of Russia, V. Ashkenazy"
TITLE "Artyomov-THreshhold-Symphony117"
INDEX 01 32:50:69
TRACK 18 AUDIO
PERFORMER "National Philharmonic of Russia, V. Ashkenazy"
TITLE "Artyomov-THreshhold-Symphony118"
INDEX 01 35:06:51
REM Cue file written by K3b 2.0.3
PERFORMER "National Philharmonic of Russia, V. Ashkenazy"
TITLE "Artyomov Threshhold of a Bright World"
FILE "National Philharmonic of Russia, V. Ashkenazy - Artyomov Threshhold of a Bright World.ogg" OGG
TRACK 01 AUDIO
PERFORMER "National Philharmonic of Russia, V. Ashkenazy"
TITLE "Artyomov-Ave ATque Vale101"
INDEX 01 00:00:00
TRACK 02 AUDIO
PERFORMER "National Philharmonic of Russia, V. Ashkenazy"
TITLE "Artyomov-Ave ATque Vale102"
INDEX 01 01:20:01
TRACK 03 AUDIO
PERFORMER "National Philharmonic of Russia, V. Ashkenazy"
TITLE "Artyomov-Ave ATque Vale103"
INDEX 01 02:26:00
TRACK 04 AUDIO
PERFORMER "National Philharmonic of Russia, V. Ashkenazy"
TITLE "Artyomov-Ave ATque Vale104"
INDEX 01 03:37:61
TRACK 05 AUDIO
PERFORMER "National Philharmonic of Russia, V. Ashkenazy"
TITLE "Artyomov-Ave ATque Vale105"
INDEX 01 05:40:62
TRACK 06 AUDIO
PERFORMER "National Philharmonic of Russia, V. Ashkenazy"
TITLE "Artyomov-Ave ATque Vale106"
INDEX 01 07:00:19
TRACK 07 AUDIO
PERFORMER "National Philharmonic of Russia, V. Ashkenazy"
TITLE "Artyomov-Ave ATque Vale107"
INDEX 01 08:41:60
TRACK 08 AUDIO
PERFORMER "National Philharmonic of Russia, V. Ashkenazy"
TITLE "Artyomov-Ave ATque Vale108"
INDEX 01 09:52:16
TRACK 09 AUDIO
PERFORMER "National Philharmonic of Russia, V. Ashkenazy"
TITLE "Artyomov-Ave ATque Vale109"
INDEX 01 11:18:55
[filmix.space].t14136.torrent 
Торрент: Зарегистрирован [ 2020-03-31 21:05 ] · C17F48CC0B2CD9831BC13DB59F3BB28FAFE426B0

Скачать .torrent

Скачать

36 KB

Статус: проверено
Скачан: 0 раз
Размер: 113 MB  ·  Тип торрента
terms.php
Профиль [ЛС]
Показать сообщения:    

Текущее время: 07-Авг 21:11

Часовой пояс: UTC + 3



Вы не можете начинать темы
Вы не можете отвечать на сообщения
Вы не можете редактировать свои сообщения
Вы не можете удалять свои сообщения
Вы не можете голосовать в опросах
Вы не можете прикреплять файлы к сообщениям
Вы можете скачивать файлы