Статистика раздачи
Размер:  114 MB   |    Зарегистрирован:  5 месяцев 4 дня   |    Скачан:  0 раз
DL-List: Нет

Полного источника не было: Никогда

 
     
 
 
 

DJ Maestro ®

Пол:
Мужской
Стаж:
2 года 2 месяца
Сообщений:
761

Откуда: CCCP

Drunkenmunky / Geht's Noch
Жанр: Hard Trance, Hard House
Носитель: WEB
Год издания: 2018
Издатель (лейбл): Klubbkontrol
Номер по каталогу: KLU 018
Аудиокодек: FLAC (*.flac)
Тип рипа: tracks
Продолжительность: 15:54
Источник: deezer
Наличие сканов в содержимом раздачи: нет
Треклист:
01. Drunkenmunky - Geht's Noch? (Original Mix) (2:51)
02. Drunkenmunky - Geht's Noch? (Ruthless & Vorwerk Square Beats Mix) (5:56)
03. Drunkenmunky - Geht's Noch? (Main Mix) (5:30)
04. Drunkenmunky - Beats Da Munky (Original Mix) (1:38)

Лог проверки качества

-----------------------
DON'T MODIFY THIS FILE
-----------------------
PERFORMER: auCDtect Task Manager, ver. 1.6.0 RC1 build 1.6.0.1
Copyright (c) 2008-2010 y-soft. All rights reserved
http://y-soft.org
ANALYZER: auCDtect: CD records authenticity detector, version 0.8.2
Copyright (c) 2004 Oleg Berngardt. All rights reserved.
Copyright (c) 2004 Alexander Djourik. All rights reserved.
FILE: 04. Drunkenmunky - Beats Da Munky (Original Mix).flac
Size: 11568518 Hash: 7F2E0300C7565B2553B7DF23807D4934 Accuracy: -m0
Conclusion: CDDA 99%
Signature: C2E6D1B94988AFE6A1D536E999A5DF6E64CFC392
FILE: 03. Drunkenmunky - Geht's Noch- (Main Mix).flac
Size: 41214426 Hash: 0529AACCE1974B8F7BE424B7BDB499CA Accuracy: -m0
Conclusion: CDDA 100%
Signature: 3F6D83EF553F614A516AA1DE17F3D343618BE89B
FILE: 02. Drunkenmunky - Geht's Noch- (Ruthless & Vorwerk Square Beats Mix).flac
Size: 44654516 Hash: 8E201DC5C5AAEA188C12B2A735F95B53 Accuracy: -m0
Conclusion: CDDA 100%
Signature: BF8C639623DA0D80F81F3E07104C568348060C37
FILE: 01. Drunkenmunky - Geht's Noch- (Original Mix).flac
Size: 22281839 Hash: 9C2D21F3D8E91DBA4BE5C60EA88EAA3C Accuracy: -m0
Conclusion: CDDA 100%
Signature: 268ACBEB78205E5D043B652CD4C78CF359912BB0

Динамический отчет (DR)

foobar2000 1.1.15 / Dynamic Range Meter 1.1.1
log date: 2021-12-14 21:34:14
--------------------------------------------------------------------------------
Analyzed: Drunkenmunky / Geht's Noch?
--------------------------------------------------------------------------------
DR Peak RMS Duration Track
--------------------------------------------------------------------------------
DR8 0.00 dB -9.86 dB 2:51 01-Geht's Noch? (Original Mix)
DR7 0.00 dB -9.28 dB 5:56 02-Geht's Noch? (Ruthless & Vorwerk Square Beats Mix)
DR9 0.00 dB -9.84 dB 5:29 03-Geht's Noch? (Main Mix)
DR8 0.00 dB -9.40 dB 1:37 04-Beats Da Munky (Original Mix)
--------------------------------------------------------------------------------
Number of tracks: 4
Official DR value: DR8
Samplerate: 44100 Hz
Channels: 2
Bits per sample: 16
Bitrate: 933 kbps
Codec: FLAC
================================================================================
[filmix.space].t29749.torrent 
Торрент: Зарегистрирован [ 2022-01-28 14:56 ] · 8F40BB220A16713F0AC1F597CC309AEF9EABC08E

Скачать .torrent

Скачать

19 KB

Статус: проверено
Скачан: 0 раз
Размер: 114 MB  ·  Тип торрента
terms.php
Профиль [ЛС]
Показать сообщения:    

Текущее время: 02-Июл 12:10

Часовой пояс: UTC + 3



Вы не можете начинать темы
Вы не можете отвечать на сообщения
Вы не можете редактировать свои сообщения
Вы не можете удалять свои сообщения
Вы не можете голосовать в опросах
Вы не можете прикреплять файлы к сообщениям
Вы можете скачивать файлы