Статистика раздачи
Размер:  1,46 GB   |    Зарегистрирован:  3 месяца 26 дней   |    Скачан:  0 раз
DL-List: Нет

Полного источника не было: Никогда

 
     
 
 
 

K15 ®

Пол:
Мужской
Стаж:
2 года 5 месяцев
Сообщений:
833

Мы — монстры 2 / Monster Family 2
Страна: Германия, Великобритания
Жанр: мультфильм, фэнтези, комедия, детский, приключения
Год выпуска: 2021
Продолжительность: 01:39:05-Перевод: Профессиональный (дублированный) | iTunes
Субтитры: нет
Оригинальная аудиодорожка: нет-Режиссер: Хольгер Таппе / Holger Tappe-В ролях: Итан Раус, Эмили Кэри, Джейсон Айзекс, Райнер Фритцше, Бернхард Вёглер, Мариус Кларен, Ник Фрост, Эмили Уотсон, Ребекка Кэмп, Эмма Тейт-Описание: Баба Яга и Горбун решили сыграть свадьбу! Семья Уишбон точно не пропустит такой праздник, так как теперь они родственники! Но как раз во время церемонии НЕ молодую пару возлюбленных похищает девочка Старр, обладающая сверхчеловеческими способностями! Что ж, Уишбонам придется вновь прибегнуть к помощи магии и снова превратиться в монстров: мама вампир, папа Франкенштейн и их дети — непоседливый оборотень и обаятельная мумия, отправляются в новое приключение. Ведь свадьба должна состояться несмотря ни на что!- -Качество видео: WEB-DLRip
Формат видео: AVI
Видео: 720x304 (2.37:1), 25 fps, XviD build 73 ~1713 kbps avg, 0.31 bit/pixel
Аудио: 48 kHz, AC3 Dolby Digital, 3/2 (L,C,R,l,r) + LFE ch, ~384 kbps-

MediaInfo

Код:
Формат : AVI
Формат/Информация : Audio Video Interleave
Размер файла : 1,46 Гбайт
Продолжительность : 1 ч. 39 м.
Общий поток : 2 108 Кбит/сек
Название фильма : Мы — монстры 2_2021_WEB-DLRip
Программа кодирования : VirtualDubMod 1.5.10.3 | www.virtualdub-fr.org || (build 2550/release)
Авторское право : порошков
Видео
Идентификатор : 0
Формат : MPEG-4 Visual
Профиль формата : Advanced Simple@L5
Настройки формата : BVOP1 / Custom Matrix
Параметр BVOP формата : 1
Параметр QPel формата : Нет
Параметр GMC формата : Без точки перехода
Параметр матрицы формата : Выборочная
Идентификатор кодека : XVID
Идентификатор кодека/Подсказка : XviD
Продолжительность : 1 ч. 39 м.
Битрейт : 1 714 Кбит/сек
Ширина : 720 пикселей
Высота : 304 пикселя
Соотношение сторон : 2,35:1
Частота кадров : 25,000 кадров/сек
Цветовое пространство : YUV
Субдискретизация насыщенности : 4:2:0
Битовая глубина : 8 бит
Тип развёртки : Прогрессивная
Метод сжатия : С потерями
Бит/(Пиксели*Кадры) : 0.313
Размер потока : 1,19 Гбайт (81%)
Библиотека кодирования : XviD 73
Аудио
Идентификатор : 1
Формат : AC-3
Формат/Информация : Audio Coding 3
Коммерческое название : Dolby Digital
Идентификатор кодека : 2000
Продолжительность : 1 ч. 39 м.
Вид битрейта : Постоянный
Битрейт : 384 Кбит/сек
Каналы : 6 каналов
Channel layout : L R C LFE Ls Rs
Частота : 48,0 КГц
Частота кадров : 31,250 кадров/сек (1536 SPF)
Метод сжатия : С потерями
Размер потока : 272 Мбайт (18%)
Выравнивание : Разделение по промежуткам
Продолжительность промежутка : 40 мс. (1,00 видеокадр)
Время предзагрузки промежутка : 500 мс.
Service kind : Complete Main

Скриншоты


[filmix.space].t30077.torrent 
Торрент: Зарегистрирован [ 2022-03-06 22:02 ] · 6809DB86FF9FA0B490B04EE8A0F5B0210568E12F

Скачать .torrent

Скачать

15 KB

Статус: проверено
Скачан: 0 раз
Размер: 1,46 GB  ·  Тип торрента
terms.php
Профиль [ЛС]
Показать сообщения:    

Текущее время: 02-Июл 12:19

Часовой пояс: UTC + 3



Вы не можете начинать темы
Вы не можете отвечать на сообщения
Вы не можете редактировать свои сообщения
Вы не можете удалять свои сообщения
Вы не можете голосовать в опросах
Вы не можете прикреплять файлы к сообщениям
Вы можете скачивать файлы