K15 ®

Пол:
Мужской
Стаж:
2 года 5 месяцев
Сообщений:
833

Кими / Kimi
Страна: США
Жанр: триллер, драма, криминал
Год выпуска: 2022
Продолжительность: 01:29:07-Перевод: Профессиональный (многоголосый закадровый) | Jaskier | присутствует ненормативная лексика
Субтитры: нет
Оригинальная аудиодорожка: нет-Режиссер: Стивен Содерберг / Steven Soderbergh-В ролях: Зои Кравиц, Эрика Кристенсен, Рита Уилсон, Девин Рэтрей, Индия де Бефорт, Хайме Камиль, Робин Гивенс, Калеб Эмери, Джейкоб Варгас, Чарльз Халфорд-Описание: Айтишница случайно обнаруживает доказательство жестокого преступления. Находка вынуждает девушку действовать, но есть много препятствий: она страдает от фобии открытых пространств, большинство людей сидят по домам из-за пандемии, а на улицах Сиэтла идут протесты.- -Качество видео: WEB-DLRip
Формат видео: AVI
Видео: 720x352 (2.05:1), 23.976 fps, XviD build 73 ~1945 kbps avg, 0.32 bit/pixel
Аудио: 48 kHz, AC3 Dolby Digital, 3/2 (L,C,R,l,r) + LFE ch, ~384 kbps-

MediaInfo

Код:
Формат : AVI
Формат/Информация : Audio Video Interleave
Размер файла : 1,46 Гбайт
Продолжительность : 1 ч. 29 м.
Общий поток : 2 339 Кбит/сек
Название фильма : Кими_2022_WEB-DLRip
Программа кодирования : VirtualDubMod 1.5.10.3 | www.virtualdub-fr.org || (build 2550/release)
Авторское право : порошков
Видео
Идентификатор : 0
Формат : MPEG-4 Visual
Профиль формата : Advanced Simple@L5
Настройки формата : BVOP1 / Custom Matrix
Параметр BVOP формата : 1
Параметр QPel формата : Нет
Параметр GMC формата : Без точки перехода
Параметр матрицы формата : Выборочная
Идентификатор кодека : XVID
Идентификатор кодека/Подсказка : XviD
Продолжительность : 1 ч. 29 м.
Битрейт : 1 946 Кбит/сек
Ширина : 720 пикселей
Высота : 352 пикселя
Соотношение сторон : 2,045
Частота кадров : 23,976 (24000/1001) кадра/сек
Цветовое пространство : YUV
Субдискретизация насыщенности : 4:2:0
Битовая глубина : 8 бит
Тип развёртки : Прогрессивная
Метод сжатия : С потерями
Бит/(Пиксели*Кадры) : 0.320
Размер потока : 1,21 Гбайт (83%)
Библиотека кодирования : XviD 73
Аудио
Идентификатор : 1
Формат : AC-3
Формат/Информация : Audio Coding 3
Коммерческое название : Dolby Digital
Идентификатор кодека : 2000
Продолжительность : 1 ч. 29 м.
Вид битрейта : Постоянный
Битрейт : 384 Кбит/сек
Каналы : 6 каналов
Channel layout : L R C LFE Ls Rs
Частота : 48,0 КГц
Частота кадров : 31,250 кадров/сек (1536 SPF)
Метод сжатия : С потерями
Размер потока : 245 Мбайт (16%)
Выравнивание : Разделение по промежуткам
Продолжительность промежутка : 42 мс. (1,00 видеокадр)
Время предзагрузки промежутка : 500 мс.
Service kind : Complete Main

Скриншоты


Профиль [ЛС]
Показать сообщения:    

Текущее время: 01-Июл 22:16

Часовой пояс: UTC + 3



Вы не можете начинать темы
Вы не можете отвечать на сообщения
Вы не можете редактировать свои сообщения
Вы не можете удалять свои сообщения
Вы не можете голосовать в опросах
Вы не можете прикреплять файлы к сообщениям
Вы можете скачивать файлы