Статистика раздачи
Размер:  2,17 GB   |    Зарегистрирован:  17 дней   |    Скачан:  0 раз
DL-List: Нет

Полного источника не было: Никогда

 
     
 
 
 

MAGNAT ®

Пол:
Мужской
Стаж:
3 года 3 месяца
Сообщений:
14668

Откуда: Москва

Матрица: Воскрешение / The Matrix Resurrections
Страна: США
Жанр: боевик, триллер, фантастика
Год выпуска: 2021
Продолжительность: 02:27:54
Перевод: Авторский (одноголосый закадровый) Сергей Визгунов
Субтитры: нет
Режиссер: Лана Вачовски / Lana Wachowski
В ролях: Киану Ривз, Кэрри-Энн Мосс, Яхья Абдул-Матин, Джонатан Грофф, Джессика Хенвик, Нил Патрик Харрис, Джада Пинкетт Смит, Ламбер Вильсон
Описание: Геймдизайнер Томас Андерсон сделал себе имя работой над трилогией игр «Матрица». Хотя окружающий мир периодически даёт сбои и обнажает свою истинную сущность, бывший Нео исправно посещает психотерапевта, принимает пилюли и практически убедил себя, что всё это — игра его воображения. Но однажды на него выходит хакерша Багз и предлагает снова следовать за белым кроликом ...
Формат видео: AVI
Видео: http://multi-up.com/1294403
Аудио: XviD 73, 720x304, (2,35:1), 23,976 fps, 1641 Кбит/с, 8 бит, 0.31 bit/pixel
Аудио 2: Русский (АС3, 6 ch (Front: L C R, Side: L R, LFE), 48,0 KHz, 448 Kbps

MediaInfo

Общее
Полное имя : F:\На трекер\Матрица Воскрешение (фантастика, боевик 2021 год).avi
Формат : AVI
Формат/Информация : Audio Video Interleave
Профиль формата : OpenDML
Размер файла : 2,17 Гбайт
Продолжительность : 2 ч. 27 м.
Общий поток : 2101 Кбит/сек
Программа кодирования : VirtualDubMod 1.5.10.2 (build 2540/release)
Библиотека кодирования : VirtualDubMod build 2540/release
Видео
Идентификатор : 0
Формат : MPEG-4 Visual
Профиль формата : Advanced Simple@L5
Параметр BVOP формата : 2
Параметр QPel формата : Нет
Параметр GMC формата : Без точки перехода
Параметр матрицы формата : Выборочная
Идентификатор кодека : XVID
Идентификатор кодека/Подсказка : XviD
Продолжительность : 2 ч. 27 м.
Битрейт : 1641 Кбит/сек
Ширина : 720 пикселей
Высота : 304 пикселя
Соотношение сторон : 2,35:1
Частота кадров : 23,976 (23976/1000) кадра/сек
Цветовое пространство : YUV
Субдискретизация насыщенности : 4:2:0
Битовая глубина : 8 бит
Тип развёртки : Прогрессивная
Метод сжатия : С потерями
Бит/(Пиксели*Кадры) : 0.313
Размер потока : 1,70 Гбайт (78%)
Библиотека кодирования : XviD 73
Аудио
Идентификатор : 1
Формат : AC-3
Формат/Информация : Audio Coding 3
Расширение режима : CM (complete main)
Параметр Endianness формата : Big
Идентификатор кодека : 2000
Продолжительность : 2 ч. 27 м.
Вид битрейта : Постоянный
Битрейт : 448 Кбит/сек
Каналы : 6 каналов
Расположение каналов : Front: L C R, Side: L R, LFE
Частота : 48,0 КГц
Частота кадров : 31,250 кадров/сек (1536 spf)
Метод сжатия : С потерями
Размер потока : 474 Мбайт (21%)
Выравнивание : Разделение по промежуткам
Продолжительность промежутка : 42 мс. (1,00 видеокадр)
Время предзагрузки промежутка : 500 мс.

Скриншоты

[filmix.space].t30757.torrent 
Торрент: Зарегистрирован [ 2022-06-14 21:25 ] · 12EF7696759F8ACE19B6FF85464187692443B561

Скачать .torrent

Скачать

11 KB

Статус: проверено
Скачан: 0 раз
Размер: 2,17 GB  ·  Тип торрента
terms.php
Профиль [ЛС]
Показать сообщения:    

Текущее время: 01-Июл 23:12

Часовой пояс: UTC + 3



Вы не можете начинать темы
Вы не можете отвечать на сообщения
Вы не можете редактировать свои сообщения
Вы не можете удалять свои сообщения
Вы не можете голосовать в опросах
Вы не можете прикреплять файлы к сообщениям
Вы можете скачивать файлы