Статистика раздачи
Размер:  2,18 GB   |    Зарегистрирован:  17 дней   |    Скачан:  0 раз
DL-List: Нет

Полного источника не было: Никогда

 
     
 
 
 

MAGNAT ®

Пол:
Мужской
Стаж:
3 года 3 месяца
Сообщений:
14668

Откуда: Москва

Деревья мира
Trees of Peace

-
Страна: США
Студия: RR Film Production, Abstract Entertainment, ABrownGirl Films
Жанр: Драма
Год выпуска: 2021
Продолжительность: 01:38:02
Перевод: Профессиональный (многоголосый закадровый) | Студия Jaskier // thx. KinoPub
Субтитры: Русские, английские, испанские, французские, украинские, немецкие, португальские
Оригинальная аудиодорожка: английский
Режиссер: Аланна Браун / Alanna Brown
В ролях:
Элиан Умугире, Чармэйн Бингва, Элла Кэннон, Бола Колеошо, Тонгай Арнольд Чириса, Джамаль Акакпо, Ивэн Алекс, Виктор Камвендо, Морис Мак, Дэвид Мэдисон
Описание:
В апреле 1994 года четыре женщины разного происхождения и вероисповедания оказались в ловушке и скрываются во время геноцида против тутси в Руанде. Их борьба за выживание вопреки всему объединяет женщин в нерушимое сестринское единство.
-
Качество видео: WEB-DLRip-AVC
Формат видео: MKV
Видео: MPEG-4 AVC, 1024x544 (1.882), 23.976 fps, 2284 kbps avg, 0.171 bit/pixel
Аудио 1: 48 kHz, AC3 Dolby Digital, 3/2 (L,C,R,l,r) + LFE ch, ~448 kbps | Многоголосый закадровый (Jaskier)
Аудио 2: 48 kHz, AC3 Dolby Digital, 3/2 (L,C,R,l,r) + LFE ch, ~448 kbps | Английский
Формат субтитров: softsub (SRT)

MediaInfo

raw [info]: 1024x544p 1:1 @ 24000/1001 fps (cfr)
x264 [info]: using SAR=1/1
x264 [info]: using cpu capabilities: MMX2 SSE2Fast SSSE3 SSE4.2 AVX FMA3 BMI2 AVX2
x264 [info]: profile High, level 4.1, 4:2:0, 8-bit
x264 [info]: frame I:963 Avg QP: 7.85 size: 65685
x264 [info]: frame P:30815 Avg QP:11.37 size: 25894
x264 [info]: frame B:109226 Avg QP:14.65 size: 7472
x264 [info]: consecutive B-frames: 1.6% 2.2% 11.0% 23.7% 12.4% 41.9% 3.0% 0.5% 0.4% 0.3% 0.4% 0.6% 2.1%
x264 [info]: mb I I16..4: 22.5% 35.6% 41.9%
x264 [info]: mb P I16..4: 4.1% 19.7% 6.6% P16..4: 20.5% 19.7% 10.4% 0.0% 0.0% skip:19.0%
x264 [info]: mb B I16..4: 0.7% 3.4% 0.6% B16..8: 23.3% 14.5% 3.4% direct: 5.1% skip:49.0% L0:45.3% L1:44.5% BI:10.2%
x264 [info]: 8x8 transform intra:65.5% inter:46.6%
x264 [info]: direct mvs spatial:98.6% temporal:1.4%
x264 [info]: coded y,uvDC,uvAC intra: 61.7% 83.9% 79.4% inter: 13.2% 17.6% 11.3%
x264 [info]: i16 v,h,dc,p: 47% 19% 8% 26%
x264 [info]: i8 v,h,dc,ddl,ddr,vr,hd,vl,hu: 15% 13% 21% 7% 8% 8% 9% 8% 12%
x264 [info]: i4 v,h,dc,ddl,ddr,vr,hd,vl,hu: 30% 18% 21% 4% 5% 5% 5% 5% 6%
x264 [info]: i8c dc,h,v,p: 46% 29% 19% 6%
x264 [info]: Weighted P-Frames: Y:4.0% UV:1.8%
x264 [info]: ref P L0: 58.2% 4.5% 14.4% 5.7% 4.5% 3.3% 2.7% 1.6% 1.5% 1.3% 1.2% 1.1% 0.1% 0.0%
x264 [info]: ref B L0: 84.7% 7.8% 2.6% 1.3% 1.0% 1.0% 0.7% 0.4% 0.3% 0.2% 0.1%
x264 [info]: ref B L1: 97.2% 2.8%
x264 [info]: kb/s:2281.71
x264 [total]: encoded 141004 frames, 10.39 fps, 2281.71 kb/s
=======================================================================================
General
Unique ID : 2916116223812804214146827058853995402 (0x2319FA158414C1E5B46A0E17E80638A)
Complete name : D:\Derevya.mira.2021.WEB-DLRip.AVC.mkv
Format : Matroska
Format version : Version 4
File size : 2.18 GiB
Duration : 1 h 38 min
Overall bit rate : 3 180 kb/s
Movie name : Derevya.mira.2021.WEB-DLRip.AVC
Encoded date : UTC 2022-06-13 05:29:10
Writing application : mkvmerge v64.0.0 ('Willows') 64-bit
Writing library : libebml v1.4.2 + libmatroska v1.6.4
Attachments : poster.jpg / log.log
Video
ID : 1
Format : AVC
Format/Info : Advanced Video Codec
Format profile : High@L4.1
Format settings : CABAC / 12 Ref Frames
Format settings, CABAC : Yes
Format settings, Reference frames : 12 frames
Codec ID : V_MPEG4/ISO/AVC
Duration : 1 h 38 min
Bit rate : 2 284 kb/s
Width : 1 024 pixels
Height : 544 pixels
Display aspect ratio : 1.882
Frame rate mode : Constant
Frame rate : 23.976 (24000/1001) FPS
Color space : YUV
Chroma subsampling : 4:2:0
Bit depth : 8 bits
Scan type : Progressive
Bits/(Pixel*Frame) : 0.171
Stream size : 1.56 GiB (72%)
Title : Деревья мира / Trees of Peace (2021)
Writing library : x264 core 164 r3094 bfc87b7
Encoding settings : cabac=1 / ref=12 / deblock=1:-3:-3 / analyse=0x3:0x113 / me=umh / subme=11 / psy=1 / psy_rd=1.00:0.05 / mixed_ref=1 / me_range=32 / chroma_me=1 / trellis=2 / 8x8dct=1 / cqm=0 / deadzone=21,11 / fast_pskip=1 / chroma_qp_offset=-6 / threads=12 / lookahead_threads=3 / sliced_threads=0 / nr=0 / decimate=1 / interlaced=0 / bluray_compat=0 / constrained_intra=0 / bframes=12 / b_pyramid=2 / b_adapt=2 / b_bias=0 / direct=3 / weightb=1 / open_gop=0 / weightp=2 / keyint=240 / keyint_min=24 / scenecut=40 / intra_refresh=0 / rc_lookahead=40 / rc=2pass / mbtree=1 / bitrate=2284 / ratetol=1.0 / qcomp=0.60 / qpmin=0 / qpmax=69 / qpstep=4 / cplxblur=20.0 / qblur=0.5 / vbv_maxrate=50000 / vbv_bufsize=62500 / nal_hrd=none / filler=0 / ip_ratio=1.40 / aq=1:1.00
Language : English
Default : Yes
Forced : No
Audio #1
ID : 2
Format : AC-3
Format/Info : Audio Coding 3
Commercial name : Dolby Digital
Codec ID : A_AC3
Duration : 1 h 38 min
Bit rate mode : Constant
Bit rate : 448 kb/s
Channel(s) : 6 channels
Channel layout : L R C LFE Ls Rs
Sampling rate : 48.0 kHz
Frame rate : 31.250 FPS (1536 SPF)
Compression mode : Lossy
Stream size : 314 MiB (14%)
Title : MVO, Jaskier // thx. KinoPub
Language : Russian
Service kind : Complete Main
Default : Yes
Forced : No
Audio #2
ID : 3
Format : AC-3
Format/Info : Audio Coding 3
Commercial name : Dolby Digital
Codec ID : A_AC3
Duration : 1 h 38 min
Bit rate mode : Constant
Bit rate : 448 kb/s
Channel(s) : 6 channels
Channel layout : L R C LFE Ls Rs
Sampling rate : 48.0 kHz
Frame rate : 31.250 FPS (1536 SPF)
Compression mode : Lossy
Stream size : 314 MiB (14%)
Title : Englih
Language : English
Service kind : Complete Main
Default : No
Forced : No
Text #1
ID : 4
Format : UTF-8
Codec ID : S_TEXT/UTF8
Codec ID/Info : UTF-8 Plain Text
Duration : 1 h 36 min
Bit rate : 64 b/s
Count of elements : 1131
Stream size : 45.3 KiB (0%)
Title : Full | Ксения Гребеникова
Language : Russian
Default : No
Forced : No
Text #2
ID : 5
Format : UTF-8
Codec ID : S_TEXT/UTF8
Codec ID/Info : UTF-8 Plain Text
Duration : 1 h 21 min
Bit rate : 3 b/s
Count of elements : 94
Stream size : 1.84 KiB (0%)
Title : Forced
Language : English
Default : No
Forced : No
Text #3
ID : 6
Format : UTF-8
Codec ID : S_TEXT/UTF8
Codec ID/Info : UTF-8 Plain Text
Duration : 1 h 29 min
Bit rate : 43 b/s
Count of elements : 1087
Stream size : 28.5 KiB (0%)
Title : Full
Language : English
Default : No
Forced : No
Text #4
ID : 7
Format : UTF-8
Codec ID : S_TEXT/UTF8
Codec ID/Info : UTF-8 Plain Text
Duration : 1 h 36 min
Bit rate : 60 b/s
Count of elements : 1552
Stream size : 43.1 KiB (0%)
Title : SDH
Language : English
Default : No
Forced : No
Text #5
ID : 8
Format : UTF-8
Codec ID : S_TEXT/UTF8
Codec ID/Info : UTF-8 Plain Text
Duration : 1 h 36 min
Bit rate : 62 b/s
Count of elements : 1133
Stream size : 43.8 KiB (0%)
Title : Full
Language : Ukrainian
Default : No
Forced : No
Text #6
ID : 9
Format : UTF-8
Codec ID : S_TEXT/UTF8
Codec ID/Info : UTF-8 Plain Text
Duration : 1 h 36 min
Bit rate : 39 b/s
Count of elements : 1082
Stream size : 28.1 KiB (0%)
Title : Full
Language : German
Default : No
Forced : No
Text #7
ID : 10
Format : UTF-8
Codec ID : S_TEXT/UTF8
Codec ID/Info : UTF-8 Plain Text
Duration : 1 h 36 min
Bit rate : 40 b/s
Count of elements : 1123
Stream size : 28.6 KiB (0%)
Title : Full
Language : French
Default : No
Forced : No
Text #8
ID : 11
Format : UTF-8
Codec ID : S_TEXT/UTF8
Codec ID/Info : UTF-8 Plain Text
Duration : 1 h 36 min
Bit rate : 39 b/s
Count of elements : 1134
Stream size : 27.7 KiB (0%)
Title : Full
Language : Spanish
Default : No
Forced : No
Text #9
ID : 12
Format : UTF-8
Codec ID : S_TEXT/UTF8
Codec ID/Info : UTF-8 Plain Text
Duration : 1 h 36 min
Bit rate : 41 b/s
Count of elements : 1128
Stream size : 29.4 KiB (0%)
Title : Full
Language : Portuguese
Default : No
Forced : No
Menu
01:32:51.000 : en:Credits

Скриншот c названием фильма

Скриншоты

[filmix.space].t30759.torrent 
Торрент: Зарегистрирован [ 2022-06-14 21:27 ] · EA6DFE15EDD284B708610B5C4174FE0E3D59313C

Скачать .torrent

Скачать

11 KB

Статус: проверено
Скачан: 0 раз
Размер: 2,18 GB  ·  Тип торрента
terms.php
Профиль [ЛС]
Показать сообщения:    

Текущее время: 01-Июл 23:26

Часовой пояс: UTC + 3



Вы не можете начинать темы
Вы не можете отвечать на сообщения
Вы не можете редактировать свои сообщения
Вы не можете удалять свои сообщения
Вы не можете голосовать в опросах
Вы не можете прикреплять файлы к сообщениям
Вы можете скачивать файлы