Статистика раздачи
Размер:  1,46 GB   |    Зарегистрирован:  13 дней   |    Скачан:  0 раз
DL-List: Нет

Полного источника не было: Никогда

 
     
 
 
 

MAGNAT ®

Пол:
Мужской
Стаж:
3 года 3 месяца
Сообщений:
14668

Откуда: Москва

Обещания
Les promesses / Promises

-
Страна: Франция
Студия: 2425 Films, Wild Bunch, France 2 Cinéma
Жанр: Драма
Год выпуска: 2021
Продолжительность: 01:38:05
Перевод: Любительский (многоголосый закадровый) | Синема УС
Субтитры: нет
Оригинальная аудиодорожка: французский
Режиссер: Томас Круитхоф / Thomas Kruithof
В ролях:
Изабель Юппер, Реда Катеб, Нейдра Айади, Жан-Поль Бордес, Софьян Герраб, Лоран Пуатрено, Эрве Пьер, Валид Афкир, Стефан Крепон, Венсан Гаранже
Описание:
К завершению своей карьеры мэр Клеманс начинает борьбу за спасение бедного района Бернардон, жители которого страдают от антисанитарных условий, нищеты и незаконной сдачи жилья беженцам. В это же время ей поступает предложение о должности министра, что ставит под сомнение все её планы. Сможет ли Клеманс отказаться от своих обещаний в пользу политических амбиций?
-
Качество видео: BDRip
Формат видео: AVI
Видео: 720x304 (2.35:1), 24.000 fps, XviD build 69 ~1548 kbps avg, 0.295 bit/pixel
Аудио 1: 48 kHz, AC3 Dolby Digital, 2/0 (L,R) ch, ~192 kbps | Многоголосый закадровый (Синема УС)
Аудио 2: 48 kHz, AC3 Dolby Digital, 3/2 (L,C,R,l,r) + LFE ch, ~384 kbps | Французский

MediaInfo

General
Complete name : D:\Obeshchaniya.2021.BDRip.avi
Format : AVI
Format/Info : Audio Video Interleave
File size : 1.46 GiB
Duration : 1 h 38 min
Overall bit rate : 2 138 kb/s
Movie name : Обещания / Les promesses / Promises (2021) BDRip
Director : Томас Круитхоф / Thomas Kruithof
Genre : Драма
Writing application : VirtualDubMod 1.5.10.2 (build 2542/release)
Original source form/Name : Художественный фильм
Copyright : Франция, 2425 Films, Wild Bunch, France 2 Cinema
Comment : Rip by vitolinform
Video
ID : 0
Format : MPEG-4 Visual
Format profile : Advanced Simple@L5
Format settings : BVOP1 / Custom Matrix
Format settings, BVOP : 1
Format settings, QPel : No
Format settings, GMC : No warppoints
Format settings, Matrix : Custom
Codec ID : XVID
Codec ID/Hint : XviD
Duration : 1 h 38 min
Bit rate : 1 548 kb/s
Width : 720 pixels
Height : 304 pixels
Display aspect ratio : 2.35:1
Frame rate : 24.000 FPS
Color space : YUV
Chroma subsampling : 4:2:0
Bit depth : 8 bits
Scan type : Progressive
Compression mode : Lossy
Bits/(Pixel*Frame) : 0.295
Stream size : 1.06 GiB (72%)
Writing library : XviD 69
Audio #1
ID : 1
Format : AC-3
Format/Info : Audio Coding 3
Commercial name : Dolby Digital
Codec ID : 2000
Duration : 1 h 38 min
Bit rate mode : Constant
Bit rate : 192 kb/s
Channel(s) : 2 channels
Channel layout : L R
Sampling rate : 48.0 kHz
Frame rate : 31.250 FPS (1536 SPF)
Compression mode : Lossy
Stream size : 135 MiB (9%)
Alignment : Split across interleaves
Interleave, duration : 42 ms (1.00 video frame)
Interleave, preload duration : 500 ms
Title : Russian (MVO, Синема УС)
Service kind : Complete Main
Audio #2
ID : 2
Format : AC-3
Format/Info : Audio Coding 3
Commercial name : Dolby Digital
Codec ID : 2000
Duration : 1 h 38 min
Bit rate mode : Constant
Bit rate : 384 kb/s
Channel(s) : 6 channels
Channel layout : L R C LFE Ls Rs
Sampling rate : 48.0 kHz
Frame rate : 31.250 FPS (1536 SPF)
Compression mode : Lossy
Stream size : 269 MiB (18%)
Alignment : Split across interleaves
Interleave, duration : 42 ms (1.00 video frame)
Interleave, preload duration : 500 ms
Title : French
Service kind : Complete Main

Скриншот c названием фильма

Скриншоты

[filmix.space].t30878.torrent 
Торрент: Зарегистрирован [ 2022-06-19 11:20 ] · A85DEFB5C709E044561332FEADCAFBB7D642A55E

Скачать .torrent

Скачать

15 KB

Статус: проверено
Скачан: 0 раз
Размер: 1,46 GB  ·  Тип торрента
terms.php
Профиль [ЛС]
Показать сообщения:    

Текущее время: 02-Июл 11:31

Часовой пояс: UTC + 3



Вы не можете начинать темы
Вы не можете отвечать на сообщения
Вы не можете редактировать свои сообщения
Вы не можете удалять свои сообщения
Вы не можете голосовать в опросах
Вы не можете прикреплять файлы к сообщениям
Вы можете скачивать файлы