Статистика раздачи
Размер:  1,46 GB   |    Зарегистрирован:  12 дней   |    Скачан:  0 раз
DL-List: Нет

Полного источника не было: Никогда

 
     
 
 
 

MAGNAT ®

Пол:
Мужской
Стаж:
3 года 3 месяца
Сообщений:
14668

Откуда: Москва

Разрыв во времени
Rip in Time

-
Страна: Канада
Студия: Front Street Pictures, Hallmark Movies & Mysteries
Жанр: Фэнтези, драма, мелодрама, комедия
Год выпуска: 2022
Продолжительность: 01:24:08
Перевод: Профессиональный (многоголосый закадровый) | Студия Jaskier // thx. KinoPub
Субтитры: нет
Оригинальная аудиодорожка: английский
Режиссер: Джессика Хэрмон / Jessica Harmon
В ролях:
Джошуа Блэк, Торри ДеВито, Кайро Райан Эллис, Эрик Кинлисайд, Найолл Мэттер, Натан Пэрротт, Джиордана Вентури, Бен Уилкинсон, Трент Прайор
Описание:
Сара, органический фермер, знакомится с человеком по имени Рип Ван Винкль-младший, который утверждает, что он из 1787 года. Вскоре она обнаруживает старомодные романтические чувства, которые могут быть такими же безумными, как и его история.
-
Качество видео: WEB-DLRip
Формат видео: AVI
Видео: 720x400 (16:9), 23.976 fps, XviD MPEG-4 ~1710 kbps avg, 0.248 bit/pixel
Аудио 1: 48 kHz, AC3 Dolby Digital, 3/2 (L,C,R,l,r) + LFE ch, ~384 kbps | Многоголосый закадровый (Jaskier)
Аудио 2: 48 kHz, AC3 Dolby Digital, 3/2 (L,C,R,l,r) + LFE ch, ~384 kbps | Английский

MediaInfo

General
Complete name : D:\Razryv.vo.vremeni.2022.WEB-DLRip.avi
Format : AVI
Format/Info : Audio Video Interleave
File size : 1.46 GiB
Duration : 1 h 24 min
Overall bit rate : 2 492 kb/s
Movie name : Разрыв во времени / Rip in Time (2022) WEB-DLRip
Director : Джессика Хэрмон / Jessica Harmon
Genre : Фэнтези, драма, мелодрама,
Writing application : VirtualDubMod 1.5.10.2 (build 2542/release)
Original source form/Name : ТВ Фильм
Copyright : Канада, Front Street Pictures, Hallmark Movies & Mysteries
Comment : Rip by vitolinform
Video
ID : 0
Format : MPEG-4 Visual
Format profile : Advanced Simple@L5
Format settings : BVOP1 / Custom Matrix
Format settings, BVOP : 1
Format settings, QPel : No
Format settings, GMC : No warppoints
Format settings, Matrix : Custom
Codec ID : XVID
Codec ID/Hint : XviD
Duration : 1 h 24 min
Bit rate : 1 710 kb/s
Width : 720 pixels
Height : 400 pixels
Display aspect ratio : 16:9
Frame rate : 23.976 (24000/1001) FPS
Original frame rate : 23.976 (23976/1000) FPS
Color space : YUV
Chroma subsampling : 4:2:0
Bit depth : 8 bits
Scan type : Progressive
Compression mode : Lossy
Bits/(Pixel*Frame) : 0.248
Stream size : 1.00 GiB (69%)
Writing library : XviD 69
Audio #1
ID : 1
Format : AC-3
Format/Info : Audio Coding 3
Commercial name : Dolby Digital
Codec ID : 2000
Duration : 1 h 24 min
Bit rate mode : Constant
Bit rate : 384 kb/s
Channel(s) : 6 channels
Channel layout : L R C LFE Ls Rs
Sampling rate : 48.0 kHz
Frame rate : 31.250 FPS (1536 SPF)
Compression mode : Lossy
Stream size : 231 MiB (15%)
Alignment : Split across interleaves
Interleave, duration : 42 ms (1.00 video frame)
Interleave, preload duration : 500 ms
Title : Russian (MVO, Jaskier)
Service kind : Complete Main
Audio #2
ID : 2
Format : AC-3
Format/Info : Audio Coding 3
Commercial name : Dolby Digital
Codec ID : 2000
Duration : 1 h 24 min
Bit rate mode : Constant
Bit rate : 384 kb/s
Channel(s) : 6 channels
Channel layout : L R C LFE Ls Rs
Sampling rate : 48.0 kHz
Frame rate : 31.250 FPS (1536 SPF)
Compression mode : Lossy
Stream size : 231 MiB (15%)
Alignment : Split across interleaves
Interleave, duration : 42 ms (1.00 video frame)
Interleave, preload duration : 500 ms
Title : English
Service kind : Complete Main

Скриншот c названием фильма

Скриншоты

[filmix.space].t30887.torrent 
Торрент: Зарегистрирован [ 2022-06-19 11:23 ] · D41BC5ACF17DFEFF2D38C1E7633B1BA71C13CF82

Скачать .torrent

Скачать

15 KB

Статус: проверено
Скачан: 0 раз
Размер: 1,46 GB  ·  Тип торрента
terms.php
Профиль [ЛС]
Показать сообщения:    

Текущее время: 01-Июл 22:54

Часовой пояс: UTC + 3



Вы не можете начинать темы
Вы не можете отвечать на сообщения
Вы не можете редактировать свои сообщения
Вы не можете удалять свои сообщения
Вы не можете голосовать в опросах
Вы не можете прикреплять файлы к сообщениям
Вы можете скачивать файлы