Статистика раздачи
Размер:  1,46 GB   |    Зарегистрирован:  1 месяц 18 дней   |    Скачан:  0 раз
DL-List: Нет

Полного источника не было: Никогда

 
     
 
 
 

MAGNAT ®

Пол:
Мужской
Стаж:
3 года 4 месяца
Сообщений:
14845

Откуда: Москва

Дом престарелых
Maison de retraite

-
Страна: Франция, Швейцария
Студия: My Family, The ManTF1 Films Production
Жанр: Комедия
Год выпуска: 2022
Продолжительность: 01:37:50
Перевод: Любительский (многоголосый закадровый) | MUZOBOZ
Субтитры: нет
Оригинальная аудиодорожка: французский
Режиссер: Тома Жилу / Thomas Gilou
В ролях:
Кев Адамс, Жерар Депардьё, Даниэль Прево, Милен Демонжо, Жан-Люк Бидо, Лилиан Ровер, Фирмин Ришар, Марта Вильялонга, Марианн Гарсиа, Антуан Дюлери
Описание:
Чтобы избежать тюрьмы, Миланн вынужден отработать 300 часов общественных работ в доме престарелых. Парень быстро находит общий язык с постояльцами, которые относятся к нему как к родному внуку. А вскоре, узнав, что владельцы заведения, пользуясь состоянием стариков, воруют их деньги, Миланн решает организовать их побег.
Качество видео: WEB-DLRip
Формат видео: AVI
Видео: 720x384 (1.85:1), 24.000 fps, XviD MPEG-4 ~1553 kbps avg, 0.234 bit/pixel
Аудио 1: 48 kHz, AC3 Dolby Digital, 2/0 (L,R) ch, ~192 kbps | Многоголосый закадровый (MUZOBOZ)
Аудио 2: 48 kHz, AC3 Dolby Digital, 3/2 (L,C,R,l,r) + LFE ch, ~384 kbps | Французский

MediaInfo

General
Complete name : D:\Dom.prestarelyh.2022.WEB-DLRip.avi
Format : AVI
Format/Info : Audio Video Interleave
File size : 1.46 GiB
Duration : 1 h 37 min
Overall bit rate : 2 143 kb/s
Movie name : Дом престарелых / Maison de retraite (2022) WEB-DLRip
Director : Тома Жилу / Thomas Gilou
Genre : Комедия
Writing application : VirtualDubMod 1.5.10.2 (build 2542/release)
Original source form/Name : Художественный фильм
Copyright : Франция, Швейцария, My Family, The Man, TF1 Films Production, Adams Family Productions, SofiTVCine 8, OCS, TF1, Tele Monte Carlo (TMC)
Comment : Rip by vitolinform
Video
ID : 0
Format : MPEG-4 Visual
Format profile : Advanced Simple@L5
Format settings : BVOP1 / Custom Matrix
Format settings, BVOP : 1
Format settings, QPel : No
Format settings, GMC : No warppoints
Format settings, Matrix : Custom
Codec ID : XVID
Codec ID/Hint : XviD
Duration : 1 h 37 min
Bit rate : 1 553 kb/s
Width : 720 pixels
Height : 384 pixels
Display aspect ratio : 1.85:1
Frame rate : 24.000 FPS
Color space : YUV
Chroma subsampling : 4:2:0
Bit depth : 8 bits
Scan type : Progressive
Compression mode : Lossy
Bits/(Pixel*Frame) : 0.234
Stream size : 1.06 GiB (72%)
Writing library : XviD 69
Audio #1
ID : 1
Format : AC-3
Format/Info : Audio Coding 3
Commercial name : Dolby Digital
Codec ID : 2000
Duration : 1 h 37 min
Bit rate mode : Constant
Bit rate : 192 kb/s
Channel(s) : 2 channels
Channel layout : L R
Sampling rate : 48.0 kHz
Frame rate : 31.250 FPS (1536 SPF)
Compression mode : Lossy
Stream size : 134 MiB (9%)
Alignment : Split across interleaves
Interleave, duration : 42 ms (1.00 video frame)
Interleave, preload duration : 500 ms
Title : Russian (MVO, MUZOBOZ)
Service kind : Complete Main
Audio #2
ID : 2
Format : AC-3
Format/Info : Audio Coding 3
Commercial name : Dolby Digital
Codec ID : 2000
Duration : 1 h 37 min
Bit rate mode : Constant
Bit rate : 384 kb/s
Channel(s) : 6 channels
Channel layout : L R C LFE Ls Rs
Sampling rate : 48.0 kHz
Frame rate : 31.250 FPS (1536 SPF)
Compression mode : Lossy
Stream size : 269 MiB (18%)
Alignment : Split across interleaves
Interleave, duration : 42 ms (1.00 video frame)
Interleave, preload duration : 500 ms
Title : French
Service kind : Complete Main

Скриншот c названием фильма

Скриншоты

[filmix.space].t30889.torrent 
Торрент: Зарегистрирован [ 2022-06-19 11:24 ] · 7C8B8EB5A478BA7DCF321ECA332F9FB4D865F921

Скачать .torrent

Скачать

15 KB

Статус: проверено
Скачан: 0 раз
Размер: 1,46 GB  ·  Тип торрента
terms.php
Профиль [ЛС]
Показать сообщения:    

Текущее время: 07-Авг 21:41

Часовой пояс: UTC + 3



Вы не можете начинать темы
Вы не можете отвечать на сообщения
Вы не можете редактировать свои сообщения
Вы не можете удалять свои сообщения
Вы не можете голосовать в опросах
Вы не можете прикреплять файлы к сообщениям
Вы можете скачивать файлы