Статистика раздачи
Размер:  1,48 GB   |    Зарегистрирован:  13 дней   |    Скачан:  0 раз
DL-List: Нет

Полного источника не было: Никогда

 
     
 
 
 

MAGNAT ®

Пол:
Мужской
Стаж:
3 года 3 месяца
Сообщений:
14668

Откуда: Москва

В ритме ча-ча-ча / Cha Cha Real Smooth
Страна: США
Жанр: комедия, драма
Год выпуска: 2022
Продолжительность: 01:48:26
Перевод: Профессиональный (дублированный) Пифагор
Субтитры: нет
Оригинальная аудиодорожка: нет
Режиссер: Купер Рэфф / Cooper Raiff
В ролях: Купер Рэфф, Дакота Джонсон, Ивэн Ассанте, Ванесса Бергхардт, Лесли Манн, Брэд Гэррет, Рауль Кастильо, Колтон Осорио, Амара Педрозо, Одейя Раш
Описание: Молодой человек, который работает ведущим церемоний бар-мицва, заводит дружбу с матерью и её дочерью, страдающей аутизмом.
Качество видео: WEB-DLRip
Формат видео: AVI
Видео: XViD, 720x384, 1,85:1, 23,976, 1 494 kbps
Аудио: русский / Пифагор, AC-3 (Dolby Digital), 48 kHz, 448 kbps, 5.1

MediaInfo

Общее
Полное имя : D:\temp\Cha.Cha.Real.Smooth.2022\Cha.Cha.Real.Smooth.2022.WEB-DLRip.Rus-Dub.avi
Формат : AVI
Формат/Информация : Audio Video Interleave
Размер файла : 1,48 Гбайт
Продолжительность : 1 ч. 48 м.
Общий поток : 1 953 Кбит/сек
Видео
Идентификатор : 0
Формат : MPEG-4 Visual
Профиль формата : Advanced Simple@L5
Настройки формата : BVOP1
Параметр BVOP формата : 1
Параметр QPel формата : Нет
Параметр GMC формата : Без точки перехода
Параметр матрицы формата : Default (H.263)
Идентификатор кодека : XVID
Идентификатор кодека/Подсказка : XviD
Продолжительность : 1 ч. 48 м.
Битрейт : 1 494 Кбит/сек
Ширина : 720 пикселей
Высота : 384 пикселя
Соотношение сторон : 1,85:1
Частота кадров : 23,976 (24000/1001) кадра/сек
Цветовое пространство : YUV
Субдискретизация насыщенности : 4:2:0
Битовая глубина : 8 бит
Тип развёртки : Прогрессивная
Метод сжатия : С потерями
Бит/(Пиксели*Кадры) : 0.225
Размер потока : 1,13 Гбайт (77%)
Библиотека кодирования : XviD 69
Аудио
Идентификатор : 1
Формат : AC-3
Формат/Информация : Audio Coding 3
Коммерческое название : Dolby Digital
Идентификатор кодека : 2000
Продолжительность : 1 ч. 48 м.
Вид битрейта : Постоянный
Битрейт : 448 Кбит/сек
Каналы : 6 каналов
Channel layout : L R C LFE Ls Rs
Частота : 48,0 КГц
Частота кадров : 31,250 кадров/сек (1536 SPF)
Метод сжатия : С потерями
Размер потока : 347 Мбайт (23%)
Выравнивание : Соединение по промежуткам
Продолжительность промежутка : 32 мс. (0,77 видеокадр)
Service kind : Complete Main

Скриншот c названием фильма

Скриншоты

[filmix.space].t30890.torrent 
Торрент: Зарегистрирован [ 2022-06-19 11:25 ] · 64D2805C736F8A9050B0A15DFC1ACCC1C3777473

Скачать .torrent

Скачать

60 KB

Статус: проверено
Скачан: 0 раз
Размер: 1,48 GB  ·  Тип торрента
terms.php
Профиль [ЛС]
Показать сообщения:    

Текущее время: 02-Июл 12:06

Часовой пояс: UTC + 3



Вы не можете начинать темы
Вы не можете отвечать на сообщения
Вы не можете редактировать свои сообщения
Вы не можете удалять свои сообщения
Вы не можете голосовать в опросах
Вы не можете прикреплять файлы к сообщениям
Вы можете скачивать файлы