Статистика раздачи
Размер:  1,47 GB   |    Зарегистрирован:  13 дней   |    Скачан:  0 раз
DL-List: Нет

Полного источника не было: Никогда

 
     
 
 
 

MAGNAT ®

Пол:
Мужской
Стаж:
3 года 3 месяца
Сообщений:
14668

Откуда: Москва

Отец невесты
Father of the Bride

-
Страна: США
Студия: LD Entertainment, Plan B Entertainment, Warner Bros.
Жанр: Мелодрама, комедия, фэнтези
Год выпуска: 2022
Продолжительность: 01:57:34
Перевод: Профессиональный (многоголосый закадровый) | Студия Jaskier // thx. KinoPub
Субтитры: нет
Оригинальная аудиодорожка: нет
Режиссер: Гари Алазраки / Gary Alazraki
В ролях:
Энди Гарсиа, Глория Эстефан, Адриа Архона, Изабела Мерсед, Диего Бонета, Marta Velasco, Рубен Рабаса, Ана Фабрега, Хлоя Файнмен, Энрике Мурсиано
Описание:
История об отце, который пытается смириться с предстоящей свадьбой дочери. Фильм показывает происходящее сквозь призму разнообразных отношений в большой кубино-американской семье.
-
Качество видео: WEB-DLRip
Формат видео: AVI
Видео: 720x304 (2.35:1), 23.976 fps, XviD build 69 ~1391 kbps avg, 0.265 bit/pixel
Аудио: 48 kHz, AC3 Dolby Digital, 3/2 (L,C,R,l,r) + LFE ch, ~384 kbps | Многоголосый закадровый (Jaskier)

MediaInfo

General
Complete name : D:\Otec.nevesty.2022.WEB-DLRip.avi
Format : AVI
Format/Info : Audio Video Interleave
File size : 1.47 GiB
Duration : 1 h 57 min
Overall bit rate : 1 784 kb/s
Movie name : Отец невесты / Father of the Bride (2022) WEB-DLRip
Director : Гари Алазраки / Gary Alazraki
Genre : Комедия, мелодрама
Writing application : VirtualDubMod 1.5.10.2 (build 2542/release)
Original source form/Name : Художественный фильм
Copyright : США, Liddell Entertainment, Plan B Entertainment, Warner Bros.
Comment : Rip by vitolinform
Video
ID : 0
Format : MPEG-4 Visual
Format profile : Advanced Simple@L5
Format settings : BVOP1 / Custom Matrix
Format settings, BVOP : 1
Format settings, QPel : No
Format settings, GMC : No warppoints
Format settings, Matrix : Custom
Codec ID : XVID
Codec ID/Hint : XviD
Duration : 1 h 57 min
Bit rate : 1 391 kb/s
Width : 720 pixels
Height : 304 pixels
Display aspect ratio : 2.35:1
Frame rate : 23.976 (24000/1001) FPS
Color space : YUV
Chroma subsampling : 4:2:0
Bit depth : 8 bits
Scan type : Progressive
Compression mode : Lossy
Bits/(Pixel*Frame) : 0.265
Stream size : 1.14 GiB (78%)
Writing library : XviD 69
Audio
ID : 1
Format : AC-3
Format/Info : Audio Coding 3
Commercial name : Dolby Digital
Codec ID : 2000
Duration : 1 h 57 min
Bit rate mode : Constant
Bit rate : 384 kb/s
Channel(s) : 6 channels
Channel layout : L R C LFE Ls Rs
Sampling rate : 48.0 kHz
Frame rate : 31.250 FPS (1536 SPF)
Compression mode : Lossy
Stream size : 323 MiB (22%)
Alignment : Split across interleaves
Interleave, duration : 42 ms (1.00 video frame)
Interleave, preload duration : 500 ms
Title : Russian (MVO, Jaskier)
Service kind : Complete Main

Скриншот c названием фильма

Скриншоты

[filmix.space].t30892.torrent 
Торрент: Зарегистрирован [ 2022-06-19 11:26 ] · 80D8FFC97EEF47611AF47B9162036EA5BE3C5165

Скачать .torrent

Скачать

15 KB

Статус: проверено
Скачан: 0 раз
Размер: 1,47 GB  ·  Тип торрента
terms.php
Профиль [ЛС]
Показать сообщения:    

Текущее время: 02-Июл 12:19

Часовой пояс: UTC + 3



Вы не можете начинать темы
Вы не можете отвечать на сообщения
Вы не можете редактировать свои сообщения
Вы не можете удалять свои сообщения
Вы не можете голосовать в опросах
Вы не можете прикреплять файлы к сообщениям
Вы можете скачивать файлы