Статистика раздачи
Размер:  1,46 GB   |    Зарегистрирован:  10 дней   |    Скачан:  0 раз
DL-List: Нет

Полного источника не было: Никогда

 
     
 
 
 

MAGNAT ®

Пол:
Мужской
Стаж:
3 года 3 месяца
Сообщений:
14668

Откуда: Москва

Вестсайдская история / West Side Story
Страна: США
Жанр: мюзикл, драма, мелодрама, криминал
Год выпуска: 2021
Продолжительность: 02:36:20-Перевод: Профессиональный (дублированный) | Невафильм
Субтитры: русские (forced)
Оригинальная аудиодорожка: нет-Режиссер: Стивен Спилберг / Steven Spielberg-В ролях: Рэйчел Зеглер, Энсел Элгорт, Майк Фейст, Ариана ДеБос, Дэвид Альварез, Кори Столл, Брайан Д`Арси Джеймс, Рита Морено, Джош Андрес Ривера, Эзра Минас-Описание: Романтическая драма в жанре мюзикла, поставленная режиссёром Стивеном Спилбергом по сценарию Тони Кушнера. Фильм является адаптацией одноимённого бродвейского мюзикла 1957 года Артура Лорана, Леонарда Бернстайна и Стивена Сондхейма, основанного на пьесе Шекспира "Ромео и Джульетта". Главные роли исполнили Энсел Эльгорт, Рэйчел Зеглер, Ариана Дебоуз, Дэвид Альварес, Майк Фейст, Кори Столл, Брайан д’Арси Джеймс и Рита Морено. Фильм посвящён отцу Стивена Спилберга — Арнольду Спилбергу. Нью-Йорк, конец 1950-х. История противостояния двух уличных банд и невозможной любви юноши и девушки из враждующих группировок.
Качество видео: HDRip
Формат видео: AVI
Видео: 720x304 (2.37:1), 23.976 fps, XviD build 73 ~1138 kbps avg, 0.22 bit/pixel
Аудио: 48 kHz, AC3 Dolby Digital, 2/0 (L,R) ch, ~192 kbps-

MediaInfo

Код:
Формат : AVI
Формат/Информация : Audio Video Interleave
Размер файла : 1,46 Гбайт
Продолжительность : 2 ч. 36 м.
Общий поток : 1 340 Кбит/сек
Название фильма : Вестсайдская история_2021_HDRip
Программа кодирования : VirtualDubMod 1.5.10.2 (build 2542/release)
Авторское право : порошков
Видео
Идентификатор : 0
Формат : MPEG-4 Visual
Профиль формата : Advanced Simple@L5
Настройки формата : BVOP1 / Custom Matrix
Параметр BVOP формата : 1
Параметр QPel формата : Нет
Параметр GMC формата : Без точки перехода
Параметр матрицы формата : Выборочная
Идентификатор кодека : XVID
Идентификатор кодека/Подсказка : XviD
Продолжительность : 2 ч. 36 м.
Битрейт : 1 138 Кбит/сек
Ширина : 720 пикселей
Высота : 304 пикселя
Соотношение сторон : 2,35:1
Частота кадров : 23,976 (24000/1001) кадра/сек
Цветовое пространство : YUV
Субдискретизация насыщенности : 4:2:0
Битовая глубина : 8 бит
Тип развёртки : Прогрессивная
Метод сжатия : С потерями
Бит/(Пиксели*Кадры) : 0.217
Размер потока : 1,24 Гбайт (85%)
Библиотека кодирования : XviD 73
Аудио
Идентификатор : 1
Формат : AC-3
Формат/Информация : Audio Coding 3
Коммерческое название : Dolby Digital
Идентификатор кодека : 2000
Продолжительность : 2 ч. 36 м.
Вид битрейта : Постоянный
Битрейт : 192 Кбит/сек
Каналы : 2 канала
Channel layout : L R
Частота : 48,0 КГц
Частота кадров : 31,250 кадров/сек (1536 SPF)
Метод сжатия : С потерями
Размер потока : 215 Мбайт (14%)
Выравнивание : Разделение по промежуткам
Продолжительность промежутка : 42 мс. (1,00 видеокадр)
Время предзагрузки промежутка : 500 мс.
Service kind : Complete Main

Скриншоты


[filmix.space].t30933.torrent 
Торрент: Зарегистрирован [ 2022-06-21 21:43 ] · C5B11C969E44A3ED53EAC2127937978D1E3421E8

Скачать .torrent

Скачать

15 KB

Статус: проверено
Скачан: 0 раз
Размер: 1,46 GB  ·  Тип торрента
terms.php
Профиль [ЛС]
Показать сообщения:    

Текущее время: 02-Июл 10:52

Часовой пояс: UTC + 3



Вы не можете начинать темы
Вы не можете отвечать на сообщения
Вы не можете редактировать свои сообщения
Вы не можете удалять свои сообщения
Вы не можете голосовать в опросах
Вы не можете прикреплять файлы к сообщениям
Вы можете скачивать файлы