Статистика раздачи
Размер:  1,46 GB   |    Зарегистрирован:  10 дней   |    Скачан:  0 раз
DL-List: Нет

Полного источника не было: Никогда

 
     
 
 
 

MAGNAT ®

Пол:
Мужской
Стаж:
3 года 3 месяца
Сообщений:
14668

Откуда: Москва

Гнев Божий
La Ira de Dios / The Wrath of God

-
Страна: Аргентина
Студия: Buffalo Films
Жанр: Триллер, драма
Год выпуска: 2022
Продолжительность: 01:38:28
Перевод: Профессиональный (многоголосый закадровый) | Студия Jaskier // thx. KinoPub
Субтитры: нет
Оригинальная аудиодорожка: нет
Режиссер: Себастьян Шиндел / Sebastián Schindel
В ролях:
Макарена Ачага, Хуан Минухин, Диего Перетти
Описание:
Лусиана, молодая женщина, погруженная в круговорот загадочных смертей родственников и растущее подозрение, что виновником является загадочный писатель, ее бывший босс.
-
Качество видео: WEB-DLRip
Формат видео: AVI
Видео: 720x400 (16:9), 23.976 fps, XviD build 69 ~1736 kbps avg, 0.251 bit/pixel
Аудио: 48 kHz, AC3 Dolby Digital, 3/2 (L,C,R,l,r) + LFE ch, ~384 kbps | Многоголосый закадровый (Jaskier)

MediaInfo

General
Complete name : D:\Gnev.Bozhij.2022.WEB-DLRip.avi
Format : AVI
Format/Info : Audio Video Interleave
File size : 1.46 GiB
Duration : 1 h 38 min
Overall bit rate : 2 129 kb/s
Movie name : Гнев Божий / La Ira de Dios / The Wrath of God (2022) WEB-DLRip
Director : Себастьян Шиндел / Sebastian Schindel
Genre : Триллер, драма
Writing application : VirtualDubMod 1.5.10.2 (build 2542/release)
Original source form/Name : Художественный фильм
Copyright : Аргентина, Buffalo Films
Comment : Rip by vitolinform
Video
ID : 0
Format : MPEG-4 Visual
Format profile : Advanced Simple@L5
Format settings : BVOP1 / Custom Matrix
Format settings, BVOP : 1
Format settings, QPel : No
Format settings, GMC : No warppoints
Format settings, Matrix : Custom
Codec ID : XVID
Codec ID/Hint : XviD
Duration : 1 h 38 min
Bit rate : 1 736 kb/s
Width : 720 pixels
Height : 400 pixels
Display aspect ratio : 16:9
Frame rate : 23.976 (24000/1001) FPS
Color space : YUV
Chroma subsampling : 4:2:0
Bit depth : 8 bits
Scan type : Progressive
Compression mode : Lossy
Bits/(Pixel*Frame) : 0.251
Stream size : 1.19 GiB (82%)
Writing library : XviD 69
Audio
ID : 1
Format : AC-3
Format/Info : Audio Coding 3
Commercial name : Dolby Digital
Codec ID : 2000
Duration : 1 h 38 min
Bit rate mode : Constant
Bit rate : 384 kb/s
Channel(s) : 6 channels
Channel layout : L R C LFE Ls Rs
Sampling rate : 48.0 kHz
Frame rate : 31.250 FPS (1536 SPF)
Compression mode : Lossy
Stream size : 270 MiB (18%)
Alignment : Split across interleaves
Interleave, duration : 42 ms (1.00 video frame)
Interleave, preload duration : 500 ms
Title : Russian (MVO, Jaskier)
Service kind : Complete Main

Скриншот c названием фильма

Скриншоты

[filmix.space].t30934.torrent 
Торрент: Зарегистрирован [ 2022-06-21 21:44 ] · AB6703FF9A2B15C7520FD6201C6FBE9B4C75815C

Скачать .torrent

Скачать

15 KB

Статус: проверено
Скачан: 0 раз
Размер: 1,46 GB  ·  Тип торрента
terms.php
Профиль [ЛС]
Показать сообщения:    

Текущее время: 01-Июл 23:45

Часовой пояс: UTC + 3



Вы не можете начинать темы
Вы не можете отвечать на сообщения
Вы не можете редактировать свои сообщения
Вы не можете удалять свои сообщения
Вы не можете голосовать в опросах
Вы не можете прикреплять файлы к сообщениям
Вы можете скачивать файлы