Статистика раздачи
Размер:  1,46 GB   |    Зарегистрирован:  10 дней   |    Скачан:  0 раз
DL-List: Нет

Полного источника не было: Никогда

 
     
 
 
 

MAGNAT ®

Пол:
Мужской
Стаж:
3 года 3 месяца
Сообщений:
14668

Откуда: Москва

Джерри и Мардж играют по-крупному
Jerry & Marge Go Large

-
Страна: США
Студия: Landline Pictures, Levantine Films, Media Rights Capital (MRC), Paramount+
Жанр: Драма, комедия, биография
Год выпуска: 2022
Продолжительность: 01:36:12
Перевод: Профессиональный (многоголосый закадровый) | Jaskier // thx. KinoPub
Субтитры: нет
Оригинальная аудиодорожка: нет
Режиссер: Дэвид Фрэнкел / David Frankel
В ролях:
Аннетт Бенинг, Брайан Крэнстон, Майкл МакКин, Рэйн Уилсон, Анна Кэмп, Джейк МакДорман, Рода Гриффис, Курт Юе, Ларри Уилмор, Мелани Хьюберт
Описание:
Супруги Джерри и Мардж Селби вычисляют математическую погрешность, которая позволяет им выигрывать одну денежную лотерею за другой. Получив миллионы долларов, они решают дать возможность озолотиться и другим.
-
Качество видео: WEB-DLRip
Формат видео: AVI
Видео: 720x304 (2.35:1), 23.976 fps, XviD build 69 ~1722 kbps avg, 0.328 bit/pixel
Аудио: 48 kHz, AC3 Dolby Digital, 3/2 (L,C,R,l,r) + LFE ch, ~448 kbps | Многоголосый закадровый (Jaskier)

MediaInfo

General
Complete name : D:\Dzherri.i.Mardzh.igrayut.po-krupnomu.2022.WEB-DLRip.avi
Format : AVI
Format/Info : Audio Video Interleave
File size : 1.46 GiB
Duration : 1 h 36 min
Overall bit rate : 2 179 kb/s
Movie name : Джерри и Мардж играют по-крупному / Jerry & Marge Go Large (2022) WEB-DLRip
Director : Дэвид Фрэнкел / David Frankel
Genre : Драма, комедия, биография
Writing application : VirtualDubMod 1.5.10.2 (build 2542/release)
Original source form/Name : Художественный фильм
Copyright : США, Landline Pictures, Levantine Films, Media Rights Capital (MRC), Paramount+
Comment : Rip by vitolinform
Video
ID : 0
Format : MPEG-4 Visual
Format profile : Advanced Simple@L5
Format settings : BVOP1 / Custom Matrix
Format settings, BVOP : 1
Format settings, QPel : No
Format settings, GMC : No warppoints
Format settings, Matrix : Custom
Codec ID : XVID
Codec ID/Hint : XviD
Duration : 1 h 36 min
Bit rate : 1 722 kb/s
Width : 720 pixels
Height : 304 pixels
Display aspect ratio : 2.35:1
Frame rate : 23.976 (24000/1001) FPS
Color space : YUV
Chroma subsampling : 4:2:0
Bit depth : 8 bits
Scan type : Progressive
Compression mode : Lossy
Bits/(Pixel*Frame) : 0.328
Stream size : 1.16 GiB (79%)
Writing library : XviD 69
Audio
ID : 1
Format : AC-3
Format/Info : Audio Coding 3
Commercial name : Dolby Digital
Codec ID : 2000
Duration : 1 h 36 min
Bit rate mode : Constant
Bit rate : 448 kb/s
Channel(s) : 6 channels
Channel layout : L R C LFE Ls Rs
Sampling rate : 48.0 kHz
Frame rate : 31.250 FPS (1536 SPF)
Compression mode : Lossy
Stream size : 308 MiB (21%)
Alignment : Split across interleaves
Interleave, duration : 42 ms (1.00 video frame)
Interleave, preload duration : 500 ms
Title : Russian (MVO, Jaskier)
Service kind : Complete Main

Скриншот c названием фильма

Скриншоты

[filmix.space].t30935.torrent 
Торрент: Зарегистрирован [ 2022-06-21 21:45 ] · 2EBC95443A9515F47D1577E30EE59B984EEA3F15

Скачать .torrent

Скачать

15 KB

Статус: проверено
Скачан: 0 раз
Размер: 1,46 GB  ·  Тип торрента
terms.php
Профиль [ЛС]
Показать сообщения:    

Текущее время: 02-Июл 11:06

Часовой пояс: UTC + 3



Вы не можете начинать темы
Вы не можете отвечать на сообщения
Вы не можете редактировать свои сообщения
Вы не можете удалять свои сообщения
Вы не можете голосовать в опросах
Вы не можете прикреплять файлы к сообщениям
Вы можете скачивать файлы