Статистика раздачи
Размер:  3,32 GB   |    Зарегистрирован:  15 дней   |    Скачан:  0 раз
DL-List: Нет

Полного источника не было: Никогда

 
     
 
 
 

MAGNAT ®

Пол:
Мужской
Стаж:
3 года 3 месяца
Сообщений:
14668

Откуда: Москва

Не смотрите наверх / Don't Look Up
Слоган: «Based on truly possible events»
Страна: США
Жанр: фантастика, драма, комедия
Год выпуска: 2021
Продолжительность: 02:23:11
Перевод 1: Профессиональный (дублированный) Пифагор
Перевод 2: Авторский (одноголосый закадровый) Юрий Сербин
Оригинальная аудиодорожка: Английский
Субтитры: Русские (Форсированные, Полные), Украинские (Форсированные, Полные), Английские (Full, SDH)--Режиссер: Адам МакКей / Adam McKay--В ролях: Леонардо ДиКаприо, Дженнифер Лоуренс, Мэрил Стрип, Кейт Бланшетт, Роб Морган, Джона Хилл, Марк Райлэнс, Тайлер Перри, Тимоти Шаламе, Рон Перлман, Ариана Гранде, Скотт Мескади, Химеш Патель, Мелани Лински, Майкл Чиклис, Томер Сисле, Пол Гилфойл, Роберт Джой, Коннор Суини, Росс Патридж, Лив Шрайбер, Сара Силверман, Джон Глейсер, Крис Эванс...--Описание: Узнав, что через полгода на Землю упадёт гигантский метеорит, двое учёных отправляются в пресс-тур в надежде предупредить мир об опасности, но везде встречают недоверие.-Качество видео:WEB-DLRip-AVC
Формат видео: MKV
Видео: AVC, 1132x474p (2.40:1), 1970 kbps, 24.000 fps, 0.153 bit/pixel.
Аудио 1: AC3 Dolby Digital, 3/2 (L,C,R,l,r) + LFE ch, 48.0 KHz, 448 Kbps.
Аудио 2: AC3 Dolby Digital, 3/2 (L,C,R,l,r) + LFE ch, 48.0 KHz, 448 Kbps.
Аудио 3: AC3 Dolby Digital, 3/2 (L,C,R,l,r) + LFE ch, 48.0 KHz, 448 Kbps.
Формат субтитров: softsub (SRT)

Скриншоты

MediaInfo/x264

x264

raw [info]: 1132x474p 1:1 @ 24/1 fps (cfr)
x264 [info]: using SAR=1/1
x264 [info]: using cpu capabilities: MMX2 SSE2Fast SSSE3 SSE4.2 AVX
x264 [info]: profile High, level 4.1, 4:2:0, 8-bit
x264 [info]: frame I:1594 Avg QP:16.85 size: 57975
x264 [info]: frame P:34592 Avg QP:19.33 size: 24311
x264 [info]: frame B:170001 Avg QP:21.39 size: 6961
x264 [info]: consecutive B-frames: 1.6% 1.0% 3.8% 11.7% 8.9% 35.5% 6.2% 1.3% 3.1% 6.2% 3.6% 1.1% 4.3% 7.1% 1.4% 1.1%
x264 [info]: mb I I16..4: 12.3% 69.9% 17.8%
x264 [info]: mb P I16..4: 1.1% 10.7% 1.3% P16..4: 37.7% 21.3% 14.6% 0.6% 0.2% skip:12.5%
x264 [info]: mb B I16..4: 0.0% 0.6% 0.1% B16..8: 37.2% 9.2% 3.0% direct: 4.3% skip:45.6% L0:41.6% L1:48.6% BI: 9.9%
x264 [info]: 8x8 transform intra:79.3% inter:59.5%
x264 [info]: coded y,uvDC,uvAC intra: 84.2% 78.3% 54.5% inter: 18.0% 12.7% 2.2%
x264 [info]: i16 v,h,dc,p: 42% 21% 6% 31%
x264 [info]: i8 v,h,dc,ddl,ddr,vr,hd,vl,hu: 11% 9% 10% 9% 13% 13% 12% 11% 12%
x264 [info]: i4 v,h,dc,ddl,ddr,vr,hd,vl,hu: 14% 10% 5% 9% 14% 14% 12% 11% 12%
x264 [info]: i8c dc,h,v,p: 40% 23% 19% 18%
x264 [info]: Weighted P-Frames: Y:4.9% UV:2.6%
x264 [info]: ref P L0: 50.2% 10.5% 17.0% 6.4% 4.5% 3.0% 2.8% 1.8% 1.4% 1.1% 1.1% 0.1% 0.0%
x264 [info]: ref B L0: 79.1% 10.0% 4.2% 2.4% 1.3% 1.0% 0.8% 0.7% 0.3% 0.1%
x264 [info]: ref B L1: 93.3% 6.7%
x264 [info]: kb/s:1971.12
General
Unique ID : 210666594791907850691866993685354942399 (0x9E7CE90AAD8ECE40A283F6DA93428FBF)
Complete name : Don't Look Up (2021).mkv
Format : Matroska
Format version : Version 4
File size : 3.32 GiB
Duration : 2 h 23 min
Overall bit rate : 3 318 kb/s
Movie name : Не смотрите наверх / Don't Look Up (2021)
Encoded date : UTC 2022-06-20 06:54:46
Writing application : mkvmerge v8.1.0 ('Psychedelic Postcard') 64bit
Writing library : libebml v1.3.1 + libmatroska v1.4.2
Cover : Yes
Attachments : cover.jpg
Video
ID : 1
Format : AVC
Format/Info : Advanced Video Codec
Format profile : High@L4.1
Format settings : CABAC / 11 Ref Frames
Format settings, CABAC : Yes
Format settings, Reference : 11 frames
Codec ID : V_MPEG4/ISO/AVC
Duration : 2 h 23 min
Bit rate : 1 971 kb/s
Width : 1 132 pixels
Height : 474 pixels
Display aspect ratio : 2.40:1
Frame rate mode : Constant
Frame rate : 24.000 FPS
Color space : YUV
Chroma subsampling : 4:2:0
Bit depth : 8 bits
Scan type : Progressive
Bits/(Pixel*Frame) : 0.153
Stream size : 1.97 GiB (59%)
Title : Don't Look Up (2021) By optik.1557
Writing library : x264 core 164 r3094 bfc87b7
Encoding settings : cabac=1 / ref=11 / deblock=1:-3:-2 / analyse=0x3:0x133 / me=umh / subme=10 / psy=1 / psy_rd=1.05:0.01 / mixed_ref=1 / me_range=32 / chroma_me=1 / trellis=2 / 8x8dct=1 / cqm=0 / deadzone=21,11 / fast_pskip=0 / chroma_qp_offset=-2 / threads=6 / lookahead_threads=1 / sliced_threads=0 / nr=0 / decimate=1 / interlaced=0 / bluray_compat=0 / constrained_intra=0 / bframes=15 / b_pyramid=2 / b_adapt=2 / b_bias=0 / direct=1 / weightb=1 / open_gop=0 / weightp=2 / keyint=250 / keyint_min=24 / scenecut=40 / intra_refresh=0 / rc_lookahead=60 / rc=crf / mbtree=0 / crf=19.9 / qcomp=0.70 / qpmin=0 / qpmax=69 / qpstep=4 / vbv_maxrate=50000 / vbv_bufsize=62500 / crf_max=0.0 / nal_hrd=none / filler=0 / ip_ratio=1.40 / pb_ratio=1.30 / aq=3:0.85
Language : English
Default : Yes
Forced : No
Color range : Limited
Matrix coefficients : BT.709
Audio #1
ID : 2
Format : AC-3
Format/Info : Audio Coding 3
Commercial name : Dolby Digital
Codec ID : A_AC3
Duration : 2 h 23 min
Bit rate mode : Constant
Bit rate : 448 kb/s
Channel(s) : 6 channels
Channel layout : L R C LFE Ls Rs
Sampling rate : 48.0 kHz
Frame rate : 31.250 FPS (1536 SPF)
Compression mode : Lossy
Stream size : 459 MiB (14%)
Title : Дубляж (Пифагор)
Language : Russian
Service kind : Complete Main
Default : Yes
Forced : No
Audio #2
ID : 3
Format : AC-3
Format/Info : Audio Coding 3
Commercial name : Dolby Digital
Codec ID : A_AC3
Duration : 2 h 23 min
Bit rate mode : Constant
Bit rate : 448 kb/s
Channel(s) : 6 channels
Channel layout : L R C LFE Ls Rs
Sampling rate : 48.0 kHz
Frame rate : 31.250 FPS (1536 SPF)
Compression mode : Lossy
Stream size : 459 MiB (14%)
Title : AVO (Юрий Сербин)
Language : Russian
Service kind : Complete Main
Default : No
Forced : No
Audio #3
ID : 4
Format : AC-3
Format/Info : Audio Coding 3
Commercial name : Dolby Digital
Codec ID : A_AC3
Duration : 2 h 23 min
Bit rate mode : Constant
Bit rate : 448 kb/s
Channel(s) : 6 channels
Channel layout : L R C LFE Ls Rs
Sampling rate : 48.0 kHz
Frame rate : 31.250 FPS (1536 SPF)
Compression mode : Lossy
Stream size : 459 MiB (14%)
Title : Original
Language : English
Service kind : Complete Main
Default : No
Forced : No
Text #1
ID : 5
Format : UTF-8
Codec ID : S_TEXT/UTF8
Codec ID/Info : UTF-8 Plain Text
Duration : 2 h 16 min
Bit rate : 5 b/s
Count of elements : 110
Stream size : 5.95 KiB (0%)
Title : Форсированные
Language : Russian
Default : Yes
Forced : No
Text #2
ID : 6
Format : UTF-8
Codec ID : S_TEXT/UTF8
Codec ID/Info : UTF-8 Plain Text
Duration : 2 h 17 min
Bit rate : 113 b/s
Count of elements : 2049
Stream size : 115 KiB (0%)
Title : Полные
Language : Russian
Default : No
Forced : No
Text #3
ID : 7
Format : UTF-8
Codec ID : S_TEXT/UTF8
Codec ID/Info : UTF-8 Plain Text
Duration : 2 h 17 min
Bit rate : 5 b/s
Count of elements : 100
Stream size : 5.49 KiB (0%)
Title : Форсированные
Language : Ukrainian
Default : No
Forced : No
Text #4
ID : 8
Format : UTF-8
Codec ID : S_TEXT/UTF8
Codec ID/Info : UTF-8 Plain Text
Duration : 2 h 17 min
Bit rate : 112 b/s
Count of elements : 2011
Stream size : 113 KiB (0%)
Title : Полные
Language : Ukrainian
Default : No
Forced : No
Text #5
ID : 9
Format : UTF-8
Codec ID : S_TEXT/UTF8
Codec ID/Info : UTF-8 Plain Text
Duration : 2 h 17 min
Bit rate : 75 b/s
Count of elements : 2038
Stream size : 76.2 KiB (0%)
Title : Full
Language : English
Default : No
Forced : No
Text #6
ID : 10
Format : UTF-8
Codec ID : S_TEXT/UTF8
Codec ID/Info : UTF-8 Plain Text
Duration : 2 h 17 min
Bit rate : 88 b/s
Count of elements : 2343
Stream size : 89.4 KiB (0%)
Title : SDH
Language : English
Default : No
Forced : No
[filmix.space].t30936.torrent 
Торрент: Зарегистрирован [ 2022-06-21 21:46 ] · B12596FAC64D090DF8BFD9D30355515FDCB762BF

Скачать .torrent

Скачать

17 KB

Статус: проверено
Скачан: 0 раз
Размер: 3,32 GB  ·  Тип торрента
terms.php
Профиль [ЛС]
Показать сообщения:    

Текущее время: 06-Июл 23:24

Часовой пояс: UTC + 3



Вы не можете начинать темы
Вы не можете отвечать на сообщения
Вы не можете редактировать свои сообщения
Вы не можете удалять свои сообщения
Вы не можете голосовать в опросах
Вы не можете прикреплять файлы к сообщениям
Вы можете скачивать файлы