Статистика раздачи
Размер:  1,94 GB   |    Зарегистрирован:  14 дней   |    Скачан:  0 раз
DL-List: Нет

Полного источника не было: Никогда

 
     
 
 
 

MAGNAT ®

Пол:
Мужской
Стаж:
3 года 3 месяца
Сообщений:
14668

Откуда: Москва

Спайдерхед / Spiderhead
Слоган: «How Far Would You Go to Fix Human Nature?»
Страна: США
Жанр: фантастика, боевик, триллер, детектив
Год выпуска: 2022
Продолжительность: 01:47:19
Перевод: Профессиональный (многоголосый закадровый) Jaskier
Оригинальная аудиодорожка: Английский
Субтитры: Русские (Полные), Украинские (Полные), Английские (Full, SDH)--Режиссер: Джозеф Косински / Joseph Kosinski--В ролях: Майлз Теллер, Крис Хемсворт, Джерни Смоллетт, Нэйтан Джонс, Тесс Хобрич, Чарльз Парнелл, Бебе Беттенкурт, Дэниэл Буко, Энджи Милликен, Джейн Ларкин...--Описание: Действие разворачивается в недалеком будущем. Заключенные преступники получают возможность сократить срок пребывания за решеткой, добровольно принимая участие в тестировании современных препаратов. Однажды осужденный преступник по имени Джефф становится участником программы тестирования препарата, который способен вызывать чувство любви. Этот эксперимент приводит Джеффа к встрече с заключенной Рэйчел, после чего главный герой начинает сомневаться в реальности собственных эмоций, а также стремится перехитрить научных сотрудников и выяснить правду…-Качество видео: WEBRip-AVC
Формат видео: MKV
Видео: AVC, 1036x436p (2.40:1), 1770 kbps, 24.000 fps, 0.163 bit/pixel.
Аудио 1: AC3 Dolby Digital, 3/2 (L,C,R,l,r) + LFE ch, 48.0 KHz, 448 Kbps.
Аудио 2: AC3 Dolby Digital, 3/2 (L,C,R,l,r) + LFE ch, 48.0 KHz, 384 Kbps.
Формат субтитров: softsub (SRT)

Скриншоты

MediaInfo

General
Unique ID : 203692509527194140212919609294617283277 (0x993DC0173CDFDFDDB432FDB3321F8ACD)
Complete name : Spiderhead (2022).mkv
Format : Matroska
Format version : Version 4
File size : 1.94 GiB
Duration : 1 h 47 min
Overall bit rate : 2 593 kb/s
Movie name : Спайдерхед / Spiderhead (2022)
Encoded date : UTC 2022-06-20 18:28:43
Writing application : mkvmerge v8.1.0 ('Psychedelic Postcard') 64bit
Writing library : libebml v1.3.1 + libmatroska v1.4.2
Cover : Yes
Attachments : cover.jpg
Video
ID : 1
Format : AVC
Format/Info : Advanced Video Codec
Format profile : High@L4.1
Format settings : CABAC / 12 Ref Frames
Format settings, CABAC : Yes
Format settings, Reference : 12 frames
Codec ID : V_MPEG4/ISO/AVC
Duration : 1 h 47 min
Bit rate : 1 770 kb/s
Width : 1 036 pixels
Height : 436 pixels
Display aspect ratio : 2.40:1
Frame rate mode : Constant
Frame rate : 24.000 FPS
Color space : YUV
Chroma subsampling : 4:2:0
Bit depth : 8 bits
Scan type : Progressive
Bits/(Pixel*Frame) : 0.163
Stream size : 1.33 GiB (68%)
Title : -=DoMiNo=-
Writing library : x264 core 164 r3095 baee400
Encoding settings : cabac=1 / ref=12 / deblock=1:-2:-2 / analyse=0x3:0x133 / me=umh / subme=10 / psy=1 / psy_rd=1.05:0.15 / mixed_ref=1 / me_range=32 / chroma_me=1 / trellis=2 / 8x8dct=1 / cqm=0 / deadzone=21,11 / fast_pskip=0 / chroma_qp_offset=-3 / threads=17 / lookahead_threads=2 / sliced_threads=0 / nr=0 / decimate=1 / interlaced=0 / bluray_compat=0 / constrained_intra=0 / bframes=9 / b_pyramid=2 / b_adapt=2 / b_bias=0 / direct=1 / weightb=1 / open_gop=0 / weightp=2 / keyint=250 / keyint_min=24 / scenecut=40 / intra_refresh=0 / rc_lookahead=60 / rc=crf / mbtree=0 / crf=17.0 / qcomp=0.60 / qpmin=0 / qpmax=69 / qpstep=4 / vbv_maxrate=50000 / vbv_bufsize=62500 / crf_max=0.0 / nal_hrd=none / filler=0 / ip_ratio=1.35 / pb_ratio=1.25 / aq=3:0.90
Language : English
Default : Yes
Forced : No
Color range : Limited
Color primaries : BT.709
Transfer characteristics : BT.709
Matrix coefficients : BT.709
Audio #1
ID : 2
Format : AC-3
Format/Info : Audio Coding 3
Commercial name : Dolby Digital
Codec ID : A_AC3
Duration : 1 h 45 min
Bit rate mode : Constant
Bit rate : 448 kb/s
Channel(s) : 6 channels
Channel layout : L R C LFE Ls Rs
Sampling rate : 48.0 kHz
Frame rate : 31.250 FPS (1536 SPF)
Compression mode : Lossy
Stream size : 339 MiB (17%)
Title : MVO [Jaskier]
Language : Russian
Service kind : Complete Main
Default : Yes
Forced : No
Audio #2
ID : 3
Format : AC-3
Format/Info : Audio Coding 3
Commercial name : Dolby Digital
Codec ID : A_AC3
Duration : 1 h 45 min
Bit rate mode : Constant
Bit rate : 384 kb/s
Channel(s) : 6 channels
Channel layout : L R C LFE Ls Rs
Sampling rate : 48.0 kHz
Frame rate : 31.250 FPS (1536 SPF)
Compression mode : Lossy
Stream size : 291 MiB (15%)
Title : Original
Language : English
Service kind : Complete Main
Default : No
Forced : No
Text #1
ID : 4
Format : UTF-8
Codec ID : S_TEXT/UTF8
Codec ID/Info : UTF-8 Plain Text
Duration : 1 h 45 min
Bit rate : 78 b/s
Count of elements : 1239
Stream size : 60.2 KiB (0%)
Title : Полные
Language : Russian
Default : No
Forced : No
Text #2
ID : 5
Format : UTF-8
Codec ID : S_TEXT/UTF8
Codec ID/Info : UTF-8 Plain Text
Duration : 1 h 45 min
Bit rate : 84 b/s
Count of elements : 1268
Stream size : 65.3 KiB (0%)
Title : Полные
Language : Ukrainian
Default : No
Forced : No
Text #3
ID : 6
Format : UTF-8
Codec ID : S_TEXT/UTF8
Codec ID/Info : UTF-8 Plain Text
Duration : 1 h 37 min
Bit rate : 58 b/s
Count of elements : 1291
Stream size : 41.5 KiB (0%)
Title : Full
Language : English
Default : No
Forced : No
Text #4
ID : 7
Format : UTF-8
Codec ID : S_TEXT/UTF8
Codec ID/Info : UTF-8 Plain Text
Duration : 1 h 41 min
Bit rate : 69 b/s
Count of elements : 1649
Stream size : 52.2 KiB (0%)
Title : SDH
Language : English
Default : No
Forced : No
[filmix.space].t30938.torrent 
Торрент: Зарегистрирован [ 2022-06-21 21:47 ] · 8381566F08D1D44E4903F98B6A8BFE9E6E5823B8

Скачать .torrent

Скачать

20 KB

Статус: проверено
Скачан: 0 раз
Размер: 1,94 GB  ·  Тип торрента
terms.php
Профиль [ЛС]
Показать сообщения:    

Текущее время: 06-Июл 21:31

Часовой пояс: UTC + 3



Вы не можете начинать темы
Вы не можете отвечать на сообщения
Вы не можете редактировать свои сообщения
Вы не можете удалять свои сообщения
Вы не можете голосовать в опросах
Вы не можете прикреплять файлы к сообщениям
Вы можете скачивать файлы